Ссылка на приватное зеркало всего за 1$. Внимание количество ограничено!!!

iTunes

iTunes

iTunes

1

iTunes

iTunes

iTunes

WEBRip

iTunes

30
pack

$ от Little Big

ВАЖНО

!!Акция!!

Alien_RageХит недели

RePack

Resident Evil 21

ИГРА 18+

pack

RePack

jed

!!Акция!!

Alien_Rage

RePack

fifa19

RePack

Assassins Creed: Odyssey

RePack

NEED FOR SPEED™ PAYBACK

4 сезон

9 сезон

Бесстыжие 9 сезон

Все сериалы

все сериалы на PB.wtf

RePack

FAR CRY 5
  

Вам – задание (Юрий Бержицкий) [ 2004 , Беларусь , драма, приключения, военный , DVDRip-AVC ] pb.wtf

Скачать  

09-05-2015 03:32 Вам – задание Скачать торрент  

Вам – заданиеГод выпуска:2004
Страна: Беларусь
Жанр: драма, приключения, военный
Продолжительность: 01:18:28
Перевод: Не требуется

Субтитры: Нет
Режиссер: Юрий Бержицкий

В ролях: Виталий Ходин (Алексей), Валентин Клементьев (Петр), Альбинас Келярис (Рановский), Валерия Арланова (Ольга), Наталия Винтилова (Надя), Светлана Кожемякина (Татьяна), Евгений Дмитриев (Володька), Вячеслав Кулаков (Штольке), Андрей Олефиренко (Массальский), Татьяна Гаркуша, Татьяна Попова, Майкл Брезанский (сын Рановского)
Описание:
В центре сюжета - история трёх братьев Купревичей. В июне 1941 года лейтенанта милиции Алексея Купревича из Минска командируют в Западную Беларусь, где в одном из селений орудует банда. Но начинается война. Алексей и его брат, старший лейтенант милиции Пётр Купревич, получают задание уничтожить высадившийся под Селищами немецкий десант. Их младший брат Володя, оказавшийся вместе с родителями в оккупированном Минске, помогает подпольщикам...
Рейтинг
kinopoisk.ru: 5.049 (109)
Качество: DVDRip
Формат: AVI
Видео кодек: XviD
Аудио кодек: AC3
Видео: DivX 5, 704x480 (3:2), 2103 kbps, 25 fps, 0,249 bpp
Аудио: AC3 / 2.0 / 48 kHz / 384 kbps / 16 bit© Оформление by ФёдорOFF
General
Complete name : D:\раздачи\Vam - zadanie.avi
Format : AVI
Format/Info : Audio Video Interleave
File size : 1.37 GiB
Duration : 1h 18mn
Overall bit rate : 2 497 Kbps
Writing application : VirtualDubMod 1.5.10.2 (build 2540/release)
Writing library : VirtualDubMod build 2540/release

Video
ID : 0
Format : MPEG-4 Visual
Format settings, BVOP : 1
Format settings, QPel : No
Format settings, GMC : No warppoints
Format settings, Matrix : Default (H.263)
Muxing mode : Packed bitstream
Codec ID : DX50
Codec ID/Hint : DivX 5
Duration : 1h 18mn
Bit rate : 2 104 Kbps
Width : 704 pixels
Height : 480 pixels
Display aspect ratio : 3:2
Frame rate : 25.000 fps
Standard : NTSC
Color space : YUV
Chroma subsampling : 4:2:0
Bit depth : 8 bits
Scan type : Progressive
Compression mode : Lossy
Bits/(Pixel*Frame) : 0.249
Stream size : 1.15 GiB (84%)
Writing library : DivX 6.8.5 (UTC 2009-08-20)

Audio
ID : 1
Format : AC-3
Format/Info : Audio Coding 3
Mode extension : CM (complete main)
Codec ID : 2000
Duration : 1h 18mn
Bit rate mode : Constant
Bit rate : 384 Kbps
Channel(s) : 2 channels
Channel positions : Front: L R
Sampling rate : 48.0 KHz
Bit depth : 16 bits
Compression mode : Lossy
Stream size : 216 MiB (15%)
Alignment : Split accross interleaves
Interleave, duration : 40 ms (1.00 video frame)
Interleave, preload duration : 500 ms
pb.wtf



28-11-2019 20:33  

Отключить всю рекламу на сайте

    Дорогой пользователь! Огромная просьба, поблагодарите релизера, оцените раздачу и оставьте свои комментарий, если Вы скачали Вам – задание через торрент бесплатно! Внесите свою лепту в развитие PiratBit!
    Комментировать посты могут только пользователи прошедшие не сложную регистрацию
    Показать сообщения:    

    Вам – задание через торрент
    Скачать бесплатно Вам – задание
    Вам – задание скачать торрент
    Вам – задание смотреть онлайн
    Cкачать фильм Вам – задание бесплатно
    Вам – задание скачать торрент в хорошем качестве
    Вам – задание смотреть онлайн бесплатно в хорошем качестве


    Вы не можете начинать темы
    Вы не можете отвечать на сообщения
    Вы не можете редактировать свои сообщения
    Вы не можете удалять свои сообщения
    Вы не можете голосовать в опросах
    Вы не можете прикреплять файлы к сообщениям
    Вы можете скачивать файлы