Всегда рабочее зеркало без VPN и Proxy просто перед .vidak.icu напиши любое слово или цифру, Пример http://dthy.vidak.icu

MVO

2 сезон

1 сезон

1

1 сезон

iTunes

2 сезон

13

1 сезон

Распродажа

pack

Рекомендуем

Пиратка

30

ВАЖНО

RePack

MK11

RePack

jed

RePack

fifa19

RePack

RDR2

RePack

NEED FOR SPEED™ PAYBACK

Кинопоиск HD

6 сезон

 Острые козырьки 6 сезон

Все сериалы

все сериалы на PB.wtf

RePack

FAR CRY 5

Anonymous, нам критически не хватает 5601 руб. на оплату серверов и переферии за Апрель, помоги нам пожалуйста, вся надежда только на тебя. В благодарность мы отключим тебе всю рекламу на сайте!

×
  
Magnet ссылка

Бёрдмэн / Birdman: Or (The Unexpected Virtue of Ignorance) (Алехандро Гонсалес Иньярриту / Alejandro González Iñárritu) [2014, драма, комедия, BDRip 1080p] Dub + DVO + 3xAVO (Сербин, Матвеев, Есарев) + MVO + Original + Sub (Rus, Ukr, Eng) pb.wtf

Бёрдмэн через торрент pb.wtf

Размер: 21.3 GB | Добавлен: 7 лет назад | Торрент скачан:14 раз
Смотреть онлайн Бёрдмэн | Скачать    Ребята, помогите собрать деньги на оплату серверов!!!

09-05-2015 08:42 Бёрдмэн Скачать торрент  

Бёрдмэн / Birdman: Or (The Unexpected Virtue of Ignorance)



Год выпуска: 2014
Страна: США
Жанр: драма, комедия
Продолжительность: 01:59:17
Перевод: Дублированный [Лицензия]
Субтитры: Русские (Forced + Full), Украинские (Full), Английские (Full + SDH)



Режиссер:
  • Алехандро Гонсалес Иньярриту / Alejandro González Iñárritu
В ролях:
  • Майкл Китон, Эдвард Нортон, Эмма Стоун, Наоми Уоттс, Зак Галифианакис, Андреа Райзборо, Эми Райан, Линдси Дункан, Дэмиэн Янг, Джереми Шамос, Кенни Чин, Жамаль Гаррисон-Лоу
Описание: В центре сюжета бывший актер, некогда сыгравший роль популярного супергероя Бёрдмэна, и теперь, переступая через свое эго, он решает принять участие в новой бродвейской постановке с целью вернуть себе былую славу, блеск и величие.



Качество: BDRip 1080p
Формат: MKV
Видео кодек: AVC
Аудио кодек: AC3 / DTS
Видео: 1920x1040 (16:9), 23,976 fps, 16370 kbps, 0,342 bpp
Аудио №1: русский, 48 kHz, DTS, 5.1 ch, 755 kbps | Дубляж, Blu-ray EUR
Аудио №2: русский, 48 kHz, DTS, 5.1 ch, 1510 kbps | Двухголосый закадровый, Кубик в Кубе
Аудио №3: русский, 48 kHz, AC3, 5.1 ch, 384 kbps | Одноголосый закадровый, Ю.Сербин
Аудио №4: русский, 48 kHz, DTS, 5.1 ch, 1510 kbps | Одноголосый закадровый, А.Матвеев
Аудио №5: русский, 48 kHz, DTS, 5.1 ch, 1510 kbps | Одноголосый закадровый, Д.Есарев
Аудио №6: украинский, 48 kHz, DTS, 5.1 ch, 1510 kbps | Многоголосый закадровый, Цікава ідея
Аудио №7: английский, 48 kHz, DTS, 5.1 ch, 1510 kbps


Код:

Общее
Уникальный идентификатор                 : 244972663218965574853244620724667804857 (0xB84C04CDC7F27F1EA07E9607E679ECB9)
Полное имя                               : D:\Бёрдмэн (2014) BDRip 1080p.mkv
Формат                                   : Matroska
Версия формата                           : Version 4 / Version 2
Размер файла                             : 21,3 Гбайт
Продолжительность                        : 1 ч. 59 м.
Общий поток                              : 25,6 Мбит/сек
Дата кодирования                         : UTC 2015-05-08 19:04:19
Программа кодирования                    : mkvmerge v6.9.1 ('Blue Panther') 32bit built on Apr 18 2014 18:15:44
Библиотека кодирования                   : libebml v1.3.0 + libmatroska v1.4.1
Attachements                             : cover.jpg

Видео
Идентификатор                            : 1
Формат                                   : AVC
Формат/Информация                        : Advanced Video Codec
Профиль формата                          : High@L4.1
Параметр CABAC формата                   : Да
Параметр ReFrames формата                : 4 кадра
Идентификатор кодека                     : V_MPEG4/ISO/AVC
Продолжительность                        : 1 ч. 59 м.
Битрейт                                  : 16,4 Мбит/сек
Ширина                                   : 1920 пикселей
Высота                                   : 1040 пикселей
Соотношение сторон                       : 1,85:1
Режим частоты кадров                     : Постоянный
Частота кадров                           : 23,976 кадра/сек
Цветовое пространство                    : YUV
Субдискретизация насыщенности            : 4:2:0
Битовая глубина                          : 8 бит
Тип развёртки                            : Прогрессивная
Бит/(Пиксели*Кадры)                      : 0.342
Размер потока                            : 13,6 Гбайт (64%)
Заголовок                                : TayTO
Библиотека кодирования                   : x264 core 142 r2431+42 c69a006 tMod [8-bit@all X86_64]
Настройки программы                      : cabac=1 / ref=4 / deblock=1:-3:-3 / analyse=0x3:0x133 / me=umh / subme=11 / psy=1 / fade_compensate=0.00 / psy_rd=1.08:0.00 / mixed_ref=1 / me_range=48 / chroma_me=1 / trellis=2 / 8x8dct=1 / cqm=0 / deadzone=21,11 / fast_pskip=0 / chroma_qp_offset=-2 / threads=12 / lookahead_threads=2 / sliced_threads=0 / nr=0 / decimate=0 / interlaced=0 / bluray_compat=0 / constrained_intra=0 / fgo=0 / bframes=9 / b_pyramid=2 / b_adapt=2 / b_bias=0 / direct=3 / weightb=1 / open_gop=0 / weightp=2 / keyint=250 / keyint_min=23 / scenecut=40 / intra_refresh=0 / rc_lookahead=60 / rc=crf / mbtree=0 / crf=16.5000 / qcomp=0.60 / qpmin=0:0:0 / qpmax=69:69:69 / qpstep=4 / vbv_maxrate=50000 / vbv_bufsize=62500 / crf_max=0.0 / nal_hrd=none / filler=0 / ip_ratio=1.30 / pb_ratio=1.20 / aq=1:0.68 / aq-sensitivity=10.00 / aq-factor=1.00:1.00:1.00 / aq2=0 / aq3=0 / zones=713,923,crf=15.9/29590,30959,crf=15.9/54238,54275,crf=15.9/61604,61691,crf=15.9/93619,93760,crf=15.9/98473,99024,crf=15.9/99439,100533,crf=15.9/101529,101763,crf=15.9/103631,103829,crf=15.9/103930,104000,crf=15.9/110555,110584,crf=15.9/125483,125691,crf=15.9/125869,126601,crf=15.9/144100,144217,crf=15.9/144271,144299,crf=15.9/144495,144606,crf=15.9/144634,145251,crf=15.9/148745,148864,crf=15.9/158616,158681,crf=15.9/163961,171599,crf=19
Язык                                     : English
Default                                  : Да
Forced                                   : Нет
Коэффициенты матрицы                     : BT.709
colour_range                             : Limited

Аудио #1
Идентификатор                            : 2
Формат                                   : DTS
Формат/Информация                        : Digital Theater Systems
Режим                                    : 16
Параметр Endianness формата              : Big
Идентификатор кодека                     : A_DTS
Продолжительность                        : 1 ч. 59 м.
Вид битрейта                             : Постоянный
Битрейт                                  : 768 Кбит/сек
Каналы                                   : 6 каналов
Расположение каналов                     : Front: L C R, Side: L R, LFE
Частота                                  : 48,0 КГц
Битовая глубина                          : 24 бит
Метод сжатия                             : С потерями
Размер потока                            : 655 Мбайт (3%)
Заголовок                                : Дубляж, Blu-ray EUR
Язык                                     : Russian
Default                                  : Да
Forced                                   : Нет

Аудио #2
Идентификатор                            : 3
Формат                                   : DTS
Формат/Информация                        : Digital Theater Systems
Режим                                    : 16
Параметр Endianness формата              : Big
Идентификатор кодека                     : A_DTS
Продолжительность                        : 1 ч. 59 м.
Вид битрейта                             : Постоянный
Битрейт                                  : 1509 Кбит/сек
Каналы                                   : 6 каналов
Расположение каналов                     : Front: L C R, Side: L R, LFE
Частота                                  : 48,0 КГц
Битовая глубина                          : 24 бит
Метод сжатия                             : С потерями
Размер потока                            : 1,26 Гбайт (6%)
Заголовок                                : Двухголосый закадровый, Кубик в Кубе
Язык                                     : Russian
Default                                  : Нет
Forced                                   : Нет

Аудио #3
Идентификатор                            : 4
Формат                                   : AC-3
Формат/Информация                        : Audio Coding 3
Расширение режима                        : CM (complete main)
Параметр Endianness формата              : Big
Идентификатор кодека                     : A_AC3
Продолжительность                        : 1 ч. 59 м.
Вид битрейта                             : Постоянный
Битрейт                                  : 384 Кбит/сек
Каналы                                   : 6 каналов
Расположение каналов                     : Front: L C R, Side: L R, LFE
Частота                                  : 48,0 КГц
Битовая глубина                          : 16 бит
Метод сжатия                             : С потерями
Размер потока                            : 328 Мбайт (2%)
Заголовок                                : Одноголосый закадровый, Ю.Сербин
Язык                                     : Russian
Default                                  : Нет
Forced                                   : Нет

Аудио #4
Идентификатор                            : 5
Формат                                   : DTS
Формат/Информация                        : Digital Theater Systems
Режим                                    : 16
Параметр Endianness формата              : Big
Идентификатор кодека                     : A_DTS
Продолжительность                        : 1 ч. 59 м.
Вид битрейта                             : Постоянный
Битрейт                                  : 1509 Кбит/сек
Каналы                                   : 6 каналов
Расположение каналов                     : Front: L C R, Side: L R, LFE
Частота                                  : 48,0 КГц
Битовая глубина                          : 24 бит
Метод сжатия                             : С потерями
Размер потока                            : 1,26 Гбайт (6%)
Заголовок                                : Одноголосый закадровый, А.Матвеев
Язык                                     : Russian
Default                                  : Нет
Forced                                   : Нет

Аудио #5
Идентификатор                            : 6
Формат                                   : DTS
Формат/Информация                        : Digital Theater Systems
Режим                                    : 16
Параметр Endianness формата              : Big
Идентификатор кодека                     : A_DTS
Продолжительность                        : 1 ч. 59 м.
Вид битрейта                             : Постоянный
Битрейт                                  : 1509 Кбит/сек
Каналы                                   : 6 каналов
Расположение каналов                     : Front: L C R, Side: L R, LFE
Частота                                  : 48,0 КГц
Битовая глубина                          : 24 бит
Метод сжатия                             : С потерями
Размер потока                            : 1,26 Гбайт (6%)
Заголовок                                : Одноголосый закадровый, Д.Есарев
Язык                                     : Russian
Default                                  : Нет
Forced                                   : Нет

Аудио #6
Идентификатор                            : 7
Формат                                   : DTS
Формат/Информация                        : Digital Theater Systems
Режим                                    : 16
Параметр Endianness формата              : Big
Идентификатор кодека                     : A_DTS
Продолжительность                        : 1 ч. 59 м.
Вид битрейта                             : Постоянный
Битрейт                                  : 1509 Кбит/сек
Каналы                                   : 6 каналов
Расположение каналов                     : Front: L C R, Side: L R, LFE
Частота                                  : 48,0 КГц
Битовая глубина                          : 16 бит
Метод сжатия                             : С потерями
Размер потока                            : 1,26 Гбайт (6%)
Заголовок                                : Многоголосый закадровый, Цікава ідея
Язык                                     : Ukrainian
Default                                  : Нет
Forced                                   : Нет

Аудио #7
Идентификатор                            : 8
Формат                                   : DTS
Формат/Информация                        : Digital Theater Systems
Режим                                    : 16
Параметр Endianness формата              : Big
Идентификатор кодека                     : A_DTS
Продолжительность                        : 1 ч. 59 м.
Вид битрейта                             : Постоянный
Битрейт                                  : 1509 Кбит/сек
Каналы                                   : 6 каналов
Расположение каналов                     : Front: L C R, Side: L R, LFE
Частота                                  : 48,0 КГц
Битовая глубина                          : 24 бит
Метод сжатия                             : С потерями
Задержка видео                           : 11 мс.
Размер потока                            : 1,26 Гбайт (6%)
Заголовок                                : Оригинал
Язык                                     : English
Default                                  : Нет
Forced                                   : Нет

Текст #1
Идентификатор                            : 9
Формат                                   : UTF-8
Идентификатор кодека                     : S_TEXT/UTF8
Идентификатор кодека/Информация          : UTF-8 Plain Text
Заголовок                                : Forced
Язык                                     : Russian
Default                                  : Да
Forced                                   : Нет

Текст #2
Идентификатор                            : 10
Формат                                   : UTF-8
Идентификатор кодека                     : S_TEXT/UTF8
Идентификатор кодека/Информация          : UTF-8 Plain Text
Заголовок                                : Full
Язык                                     : Russian
Default                                  : Нет
Forced                                   : Нет

Текст #3
Идентификатор                            : 11
Формат                                   : UTF-8
Идентификатор кодека                     : S_TEXT/UTF8
Идентификатор кодека/Информация          : UTF-8 Plain Text
Заголовок                                : Full
Язык                                     : Ukrainian
Default                                  : Нет
Forced                                   : Нет

Текст #4
Идентификатор                            : 12
Формат                                   : UTF-8
Идентификатор кодека                     : S_TEXT/UTF8
Идентификатор кодека/Информация          : UTF-8 Plain Text
Заголовок                                : Full
Язык                                     : English
Default                                  : Нет
Forced                                   : Нет

Текст #5
Идентификатор                            : 13
Формат                                   : UTF-8
Идентификатор кодека                     : S_TEXT/UTF8
Идентификатор кодека/Информация          : UTF-8 Plain Text
Заголовок                                : SDH
Язык                                     : English
Default                                  : Нет
Forced                                   : Нет

Меню
00:00:00.000                             : en:00:00:00.000
00:03:29.084                             : en:00:03:29.084
00:07:33.828                             : en:00:07:33.828
00:09:08.506                             : en:00:09:08.506
00:12:39.384                             : en:00:12:39.384
00:16:53.429                             : en:00:16:53.429
00:19:07.146                             : en:00:19:07.146
00:20:22.096                             : en:00:20:22.096
00:25:21.186                             : en:00:25:21.186
00:31:45.028                             : en:00:31:45.028
00:36:09.834                             : en:00:36:09.834
00:37:12.772                             : en:00:37:12.772
00:42:09.444                             : en:00:42:09.444
00:48:49.802                             : en:00:48:49.802
00:53:30.541                             : en:00:53:30.541
00:58:31.341                             : en:00:58:31.341
01:03:17.085                             : en:01:03:17.085
01:08:29.147                             : en:01:08:29.147
01:12:42.567                             : en:01:12:42.567
01:17:01.450                             : en:01:17:01.450
01:20:45.090                             : en:01:20:45.090
01:25:13.984                             : en:01:25:13.984
01:28:04.946                             : en:01:28:04.946
01:33:22.472                             : en:01:33:22.472
01:39:14.949                             : en:01:39:14.949
01:43:10.726                             : en:01:43:10.726
01:46:43.856                             : en:01:46:43.856
01:52:16.855                             : en:01:52:16.855

Бюджет фильма: $18 000 000
Премьера (мир): 27 августа 2014
Премьера (РФ): 22 января 2015,
«Двадцатый Век Фокс СНГ»

Релиз на Blu-Ray: 5 марта 2015,
«Двадцатый Век Фокс СНГ»,
...

Релиз на DVD: 5 марта 2015,
«Двадцатый Век Фокс СНГ»,
...
Данный релиз идеален для пополнения домашней коллекции BDRip'ов.
В релиз вшита русская обложка размером 520х600 пикселей (аналогичные размеры у всех обложек для данной категории), что позволяет предать визуальную красоту Ваших фильмов.
Так же релиз максимально наполнен аудио дорожками в высоком качестве и субтитрами в формате srt.
Раздача обновляемая! При выходе других авторских переводов, релиз будет обновлен!
Итак, посмотрим на примере, как будет выглядеть Ваша коллекция: скриншот  
К сожалению, далеко не все, встроенные в телевизор медиаплееры, умеют воспроизводить звук в формате "DTS".
Выходов несколько: либо скачать другую раздачу, в которой звук будет в формате "АС3", либо перекодировать из "DTS" в "АС3".
Так же можно воспроизвести фильм с Вашего персонального компьютера/ноутбука, подключенного к телевизору через провод HDMI.
Фильмы выпускаются для кинотеатров, с пропорциями 2.35:1. И в таком же виде обычно издаются на дисках.
Монитор 16:9 имеет пропорции 1.77:1 поэтому более широкоформатное кино будет отображаться с черными полосами.
Надо это просто принять, ведь так снимают многие кинокартины.
Но некоторые фильмы могут быть и на весь экран. Особенно сериалы.
В рипах обычно обрезают черные полосы, и получают разрешение 1920х800, где приблизительно 280 пикселей занимали, повторюсь, черные полосы на экране.
Пример кадра "на весь экран": скриншот  
Пример кадра "не на весь экран": скриншот  
pb.wtf



Скачать Бёрдмэн через торрент http://i69.fastpic.ru/big/2015/0516/48/f70ab026c46ddbdae3734a1ac4e26e48.png Скачать, смотреть онлайн Бёрдмэн бесплантно в хорошем качестве Описание: В центре сюжета бывший актер, некогда сыгравший роль популярного супергероя Бёрдмэна, и теперь, переступая через свое эго, он ... 10 10 4
Info! Золотая раздача, скачанное не засчитывается.
Торрент: Зарегистрирован [2015-05-09 08:49] · скачан: 14 раз
Статус: √ проверено
Размер: 21.3 GB
Как cкачать? Как скачать Бёрдмэн через торрент | UTorrent

% Раздел Тема Автор DL S | L
Фильмы [HD 720p, 1080p] (Хороший звук DUB, MVO) [ 7.29 GB ] Бёрдмэн / Birdman or [2014 BDRip 720p] DUB DVO AVO potroks Скачать
1 | 0
Фильмы (BDRip, HDrip-AVC) (48-60 fps) [ 3.95 GB ] Бёрдмэн / Birdman: Or [2014 BDRip-AVC 60fps ] от R.G. HD-Films Tiberiumsun69 Скачать
1 | 0
Фильмы (Blu-ray, BD-Remux, HDDVD) [ 36.09 GB ] Бёрдмэн / Birdman [2014 Blu-Ray Remux 1080p] DVO [Кубик в Кубе] + Original + Subs от R.G. PiratFilms Messa-fan Скачать
1 | 0
Фильмы [HD 720p, 1080p] (Хороший звук DUB, MVO) [ 18.77 GB ] Бёрдмэн / Birdman [2014 BDRip 1080p] [] + 2xAVO [Есарев Матвеев] + Ukr + Original + Subs от R.G. PiratFilms Messa-fan Скачать
1 | 0
Фильмы [HD 720p, 1080p] (Хороший звук DUB, MVO) [ 11.16 GB ] Бёрдмэн / Birdman [2014 BDRip 720p] [] + 2xAVO [Есарев Матвеев] + Ukr + Original + Subs от R.G. PiratFilms Messa-fan Скачать
1 | 0

28-11-2019 20:33  

Отключить всю рекламу на сайте

    Дорогой пользователь! Огромная просьба, поблагодарите релизера, оцените раздачу и оставьте свои комментарий, если Вы скачали Бёрдмэн через торрент бесплатно!
    Комментировать посты могут только пользователи прошедшие не сложную регистрацию
    Показать сообщения:    

    Бёрдмэн через торрент
    Скачать бесплатно Бёрдмэн
    Бёрдмэн скачать торрент
    Бёрдмэн смотреть онлайн
    Cкачать фильм Бёрдмэн бесплатно
    Бёрдмэн скачать торрент в хорошем качестве
    Бёрдмэн смотреть онлайн бесплатно в хорошем качестве


    Вы не можете начинать темы
    Вы не можете отвечать на сообщения
    Вы не можете редактировать свои сообщения
    Вы не можете удалять свои сообщения
    Вы не можете голосовать в опросах
    Вы не можете прикреплять файлы к сообщениям
    Вы можете скачивать файлы