Ссылка на приватное зеркало нашего сайта всего за 1$. Внимание количество ограничено!!!

2 сезон

iTunes

1 сезон

1

iTunes

iTunes

iTunes

1 сезон

RePack

30

ИГРА 18+

pack

ВАЖНО

!!Акция!!

Alien_RageХит недели

RePack

MK11
pack

Забери бонус

RePack

jed

!!Акция!!

Alien_Rage

RePack

fifa19

RePack

Assassins Creed: Odyssey

RePack

NEED FOR SPEED™ PAYBACK

4 сезон

9 сезон

Бесстыжие 9 сезон

Все сериалы

все сериалы на PB.wtf

RePack

FAR CRY 5
  

1+1 / Intouchables (Оливье Накаш / Olivier Nakache, Эрик Толедано / Eric Toledano) [2011, драма, комедия, биография, BDRip 1080p] 2xDub (Rus, Ukr) + DVO + VO (Zamez) + Original + Sub (Rus,Ukr, Fre, Eng) pb.wtf

1+1 через торрент pb.wtf

Размер: 17.23 GB | Добавлен: 5 лет 5 мес. назад | Торрент скачан:29 раз
Скачать  

09-05-2015 09:03 1+1 Скачать торрент  

1+1 / Intouchables
«Sometimes you have to reach into someone else's world to find out what's missing in your own»



Год выпуска: 2011
Страна: Франция
Жанр: драма, комедия, биография
Продолжительность: 01:52:02
Перевод: Дублированный [Лицензия]
Субтитры: Русские (Full), Украинские (Full), Французские (Full), Английские (Full)



Режиссер:
  • Оливье Накаш / Olivier Nakache, Эрик Толедано / Eric Toledano
В ролях:
  • Франсуа Клюзе, Омар Си, Анн Ле Ни, Одри Флеро, Жозефин де Мо, Клотильд Молле, Альба Гайя Крагеде Беллуджи, Сирил Менди, Салимата Камате, Абса Дьяту Тур, Грегуар Эстерманн, Доминик Дагьер
Описание: Пострадав в результате несчастного случая, богатый аристократ Филипп нанимает в помощники человека, который менее всего подходит для этой работы, - молодого жителя предместья Дрисса, только что освободившегося из тюрьмы. Несмотря на то, что Филипп прикован к инвалидному креслу, Дриссу удается привнести в размеренную жизнь аристократа дух приключений.



Качество: BDRip 1080p
Формат: MKV
Видео кодек: AVC
Аудио кодек: AC3 / DTS
Видео: 1920x1040 (16:9), 24 fps, 16656 kbps, 0,348 bpp
Аудио №1: русский, 48 kHz, AC3, 5.1 ch, 640 kbps | Дубляж, Blu-ray RUS
Аудио №2: русский, 48 kHz, DTS, 5.1 ch, 1510 kbps | Двухголосый закадровый, Ozz.tv
Аудио №3: русский, 48 kHz, DTS, 5.1 ch, 1510 kbps | Одноголосый закадровый, Zamez
Аудио №4: украинский, 48 kHz, AC3, 2.0 ch, 192 kbps | Дубляж, 1+1
Аудио №5: французский, 48 kHz, DTS, 5.1 ch, 1510 kbps


Код:

Общее
Уникальный идентификатор                 : 226107257565228471784451671393896496437 (0xAA1AAC7E1442E35CB4D2C1824307FD35)
Полное имя                               : D:\1+1 (2011) BDRip 1080p.mkv
Формат                                   : Matroska
Версия формата                           : Version 4 / Version 2
Размер файла                             : 17,2 Гбайт
Продолжительность                        : 1 ч. 52 м.
Общий поток                              : 22,0 Мбит/сек
Дата кодирования                         : UTC 2015-05-09 09:37:41
Программа кодирования                    : mkvmerge v6.9.1 ('Blue Panther') 32bit built on Apr 18 2014 18:15:44
Библиотека кодирования                   : libebml v1.3.0 + libmatroska v1.4.1
Attachements                             : cover.jpg

Видео
Идентификатор                            : 1
Формат                                   : AVC
Формат/Информация                        : Advanced Video Codec
Профиль формата                          : High@L4.1
Параметр CABAC формата                   : Да
Параметр ReFrames формата                : 4 кадра
Идентификатор кодека                     : V_MPEG4/ISO/AVC
Продолжительность                        : 1 ч. 52 м.
Битрейт                                  : 16,7 Мбит/сек
Ширина                                   : 1920 пикселей
Высота                                   : 1040 пикселей
Соотношение сторон                       : 1,85:1
Режим частоты кадров                     : Постоянный
Частота кадров                           : 24,000 кадра/сек
Цветовое пространство                    : YUV
Субдискретизация насыщенности            : 4:2:0
Битовая глубина                          : 8 бит
Тип развёртки                            : Прогрессивная
Бит/(Пиксели*Кадры)                      : 0.348
Размер потока                            : 12,7 Гбайт (74%)
Заголовок                                : EbP
Библиотека кодирования                   : x264 core 120 r2164 da19765
Настройки программы                      : cabac=1 / ref=4 / deblock=1:-3:-3 / analyse=0x3:0x133 / me=umh / subme=10 / psy=1 / psy_rd=0.95:0.00 / mixed_ref=1 / me_range=36 / chroma_me=1 / trellis=2 / 8x8dct=1 / cqm=0 / deadzone=21,11 / fast_pskip=0 / chroma_qp_offset=-2 / threads=6 / sliced_threads=0 / nr=0 / decimate=0 / interlaced=0 / bluray_compat=0 / constrained_intra=0 / bframes=9 / b_pyramid=2 / b_adapt=2 / b_bias=0 / direct=3 / weightb=1 / open_gop=0 / weightp=2 / keyint=360 / keyint_min=2 / scenecut=40 / intra_refresh=0 / rc=2pass / mbtree=0 / bitrate=16656 / ratetol=1.0 / qcomp=0.65 / qpmin=0 / qpmax=69 / qpstep=4 / cplxblur=20.0 / qblur=0.5 / ip_ratio=1.40 / pb_ratio=1.30 / aq=1:1.10
Язык                                     : French
Default                                  : Да
Forced                                   : Нет

Аудио #1
Идентификатор                            : 2
Формат                                   : AC-3
Формат/Информация                        : Audio Coding 3
Расширение режима                        : CM (complete main)
Параметр Endianness формата              : Big
Идентификатор кодека                     : A_AC3
Продолжительность                        : 1 ч. 52 м.
Вид битрейта                             : Постоянный
Битрейт                                  : 640 Кбит/сек
Каналы                                   : 6 каналов
Расположение каналов                     : Front: L C R, Side: L R, LFE
Частота                                  : 48,0 КГц
Битовая глубина                          : 16 бит
Метод сжатия                             : С потерями
Размер потока                            : 513 Мбайт (3%)
Заголовок                                : Дубляж, Blu-ray RUS
Язык                                     : Russian
Default                                  : Да
Forced                                   : Нет

Аудио #2
Идентификатор                            : 3
Формат                                   : DTS
Формат/Информация                        : Digital Theater Systems
Режим                                    : 16
Параметр Endianness формата              : Big
Идентификатор кодека                     : A_DTS
Продолжительность                        : 1 ч. 52 м.
Вид битрейта                             : Постоянный
Битрейт                                  : 1509 Кбит/сек
Каналы                                   : 6 каналов
Расположение каналов                     : Front: L C R, Side: L R, LFE
Частота                                  : 48,0 КГц
Битовая глубина                          : 24 бит
Метод сжатия                             : С потерями
Размер потока                            : 1,18 Гбайт (7%)
Заголовок                                : Двухголосый закадровый, Ozz.tv
Язык                                     : Russian
Default                                  : Нет
Forced                                   : Нет

Аудио #3
Идентификатор                            : 4
Формат                                   : DTS
Формат/Информация                        : Digital Theater Systems
Режим                                    : 16
Параметр Endianness формата              : Big
Идентификатор кодека                     : A_DTS
Продолжительность                        : 1 ч. 52 м.
Вид битрейта                             : Постоянный
Битрейт                                  : 1509 Кбит/сек
Каналы                                   : 6 каналов
Расположение каналов                     : Front: L C R, Side: L R, LFE
Частота                                  : 48,0 КГц
Битовая глубина                          : 24 бит
Метод сжатия                             : С потерями
Размер потока                            : 1,18 Гбайт (7%)
Заголовок                                : Одноголосый закадровый, Zamez
Язык                                     : Russian
Default                                  : Нет
Forced                                   : Нет

Аудио #4
Идентификатор                            : 5
Формат                                   : AC-3
Формат/Информация                        : Audio Coding 3
Расширение режима                        : CM (complete main)
Параметр Endianness формата              : Big
Идентификатор кодека                     : A_AC3
Продолжительность                        : 1 ч. 52 м.
Вид битрейта                             : Постоянный
Битрейт                                  : 192 Кбит/сек
Каналы                                   : 2 канала
Расположение каналов                     : Front: L R
Частота                                  : 48,0 КГц
Битовая глубина                          : 16 бит
Метод сжатия                             : С потерями
Размер потока                            : 154 Мбайт (1%)
Заголовок                                : Дубляж, 1+1
Язык                                     : Ukrainian
Default                                  : Нет
Forced                                   : Нет

Аудио #5
Идентификатор                            : 6
Формат                                   : DTS
Формат/Информация                        : Digital Theater Systems
Режим                                    : 16
Параметр Endianness формата              : Big
Идентификатор кодека                     : A_DTS
Продолжительность                        : 1 ч. 52 м.
Вид битрейта                             : Постоянный
Битрейт                                  : 1509 Кбит/сек
Каналы                                   : 6 каналов
Расположение каналов                     : Front: L C R, Side: L R, LFE
Частота                                  : 48,0 КГц
Битовая глубина                          : 24 бит
Метод сжатия                             : С потерями
Размер потока                            : 1,18 Гбайт (7%)
Заголовок                                : Оригинал
Язык                                     : French
Default                                  : Нет
Forced                                   : Нет

Текст #1
Идентификатор                            : 7
Формат                                   : UTF-8
Идентификатор кодека                     : S_TEXT/UTF8
Идентификатор кодека/Информация          : UTF-8 Plain Text
Заголовок                                : Full (El.Brujo)
Язык                                     : Russian
Default                                  : Нет
Forced                                   : Нет

Текст #2
Идентификатор                            : 8
Формат                                   : UTF-8
Идентификатор кодека                     : S_TEXT/UTF8
Идентификатор кодека/Информация          : UTF-8 Plain Text
Заголовок                                : Full (SergoMozaic)
Язык                                     : Ukrainian
Default                                  : Нет
Forced                                   : Нет

Текст #3
Идентификатор                            : 9
Формат                                   : UTF-8
Идентификатор кодека                     : S_TEXT/UTF8
Идентификатор кодека/Информация          : UTF-8 Plain Text
Заголовок                                : Full
Язык                                     : French
Default                                  : Нет
Forced                                   : Нет

Текст #4
Идентификатор                            : 10
Формат                                   : UTF-8
Идентификатор кодека                     : S_TEXT/UTF8
Идентификатор кодека/Информация          : UTF-8 Plain Text
Заголовок                                : Full
Язык                                     : English
Default                                  : Нет
Forced                                   : Нет

Меню
00:00:00.000                             : en:00:00:00.000
00:07:26.000                             : en:00:07:26.000
00:12:54.375                             : en:00:12:54.375
00:18:56.667                             : en:00:18:56.667
00:26:51.958                             : en:00:26:51.958
00:30:50.708                             : en:00:30:50.708
00:37:26.208                             : en:00:37:26.208
00:42:05.667                             : en:00:42:05.667
00:48:45.333                             : en:00:48:45.333
00:54:26.250                             : en:00:54:26.250
00:58:02.708                             : en:00:58:02.708
01:04:06.833                             : en:01:04:06.833
01:14:27.042                             : en:01:14:27.042
01:21:39.833                             : en:01:21:39.833
01:29:26.125                             : en:01:29:26.125
01:35:56.875                             : en:01:35:56.875
01:40:22.042                             : en:01:40:22.042
01:45:12.542                             : en:01:45:12.542

Бюджет фильма: €9 500 000
Премьера (мир): 23 сентября 2011
Премьера (РФ): 26 апреля 2012,
«Каскад»

Релиз на Blu-Ray: 25 июня 2012,
«Новый Диск»,
...

Релиз на DVD: 28 мая 2012,
«Новый Диск»,
...
Данный релиз идеален для пополнения домашней коллекции BDRip'ов.
В релиз вшита русская обложка размером 520х600 пикселей (аналогичные размеры у всех обложек для данной категории), что позволяет предать визуальную красоту Ваших фильмов.
Так же релиз максимально наполнен аудио дорожками в высоком качестве и субтитрами в формате srt.
Раздача обновляемая! При выходе других авторских переводов, релиз будет обновлен!
Итак, посмотрим на примере, как будет выглядеть Ваша коллекция: скриншот  
К сожалению, далеко не все, встроенные в телевизор медиаплееры, умеют воспроизводить звук в формате "DTS".
Выходов несколько: либо скачать другую раздачу, в которой звук будет в формате "АС3", либо перекодировать из "DTS" в "АС3".
Так же можно воспроизвести фильм с Вашего персонального компьютера/ноутбука, подключенного к телевизору через провод HDMI.
Фильмы выпускаются для кинотеатров, с пропорциями 2.35:1. И в таком же виде обычно издаются на дисках.
Монитор 16:9 имеет пропорции 1.77:1 поэтому более широкоформатное кино будет отображаться с черными полосами.
Надо это просто принять, ведь так снимают многие кинокартины.
Но некоторые фильмы могут быть и на весь экран. Особенно сериалы.
В рипах обычно обрезают черные полосы, и получают разрешение 1920х800, где приблизительно 280 пикселей занимали, повторюсь, черные полосы на экране.
Пример кадра "на весь экран": скриншот  
Пример кадра "не на весь экран": скриншот  
pb.wtf



Скачать 1+1 через торрент http://i70.fastpic.ru/big/2015/0516/df/9a6fb407cbec771c5e62b2f64d9438df.png Скачать фильм 1+1 через торрент бесплантно в хорошем качестве Описание: Пострадав в результате несчастного случая, богатый аристократ Филипп нанимает в помощники человека, который менее всего подходит ... 9.1 10 10
Info! Золотая раздача, скачанное не засчитывается.
Торрент: Зарегистрирован [2015-05-09 10:18] · скачан: 29 раз
Статус: √ проверено
Размер: 17.23 GB
Как cкачать? Как скачать 1+1 через торрент | qTorrent

% Раздел Тема Автор DL S | L
Фильмы [HD 720p, 1080p] (Хороший звук DUB, MVO) [ 15.64 GB ] 1+1 / Intouchables [2011 биография BDRip 1080p by msltel] DUB MVO msltel Скачать
1 | 0
Фильмы с авторской озвучкой [ 1.46 GB ] Неприкасаемые / 1+1 / Intouchables [2011 биография HDRip] [AVO] killermax2013 Скачать
3 | 0
Фильмы [HD 720p, 1080p] (Хороший звук DUB, MVO) [ 5.72 GB ] 1+1 / Intouchables [2011 биография BDRip 720p by msltel] DUB MVO msltel Скачать
2 | 0
Фильмы 2011 [ 3.29 GB ] 1+1 / Intouchables [2011 биография BDRip AVC by msltel] DUB MVO msltel Скачать
2 | 0
Фильмы 2012 [ 2.18 GB ] 1+1 / Intouchables [2011 BDRip-AVC от HQ-ViDEO DUB ] ~Relizer~ Скачать
1 | 0
Фильмы 2011 [ 2.18 GB ] 1+1 / Intouchables [2011 HDRip DUB ] shuller Скачать
1 | 0
Фильмы 2011 [ 1.46 GB ] 1+1 / Intouchables [2011 биография BDRip-AVC] DUB Rzhavec Скачать
2 | 0

28-11-2019 20:33  

Отключить всю рекламу на сайте

06-05-2020 14:38 1+1 Скачать торрент  

Все супер. Релизеру удачи!pb.wtf



    Дорогой пользователь! Огромная просьба, поблагодарите релизера, оцените раздачу и оставьте свои комментарий, если Вы скачали 1+1 через торрент бесплатно! Внесите свою лепту в развитие PiratBit!
    Комментировать посты могут только пользователи прошедшие не сложную регистрацию
    Показать сообщения:    

    1+1 через торрент
    Скачать бесплатно 1+1
    1+1 скачать торрент
    1+1 смотреть онлайн
    Cкачать фильм 1+1 бесплатно
    1+1 скачать торрент в хорошем качестве
    1+1 смотреть онлайн бесплатно в хорошем качестве


    Вы не можете начинать темы
    Вы не можете отвечать на сообщения
    Вы не можете редактировать свои сообщения
    Вы не можете удалять свои сообщения
    Вы не можете голосовать в опросах
    Вы не можете прикреплять файлы к сообщениям
    Вы можете скачивать файлы