Ссылка на приватное зеркало нашего сайта всего за 1$. Внимание количество ограничено!!!

2 сезон

iTunes

1 сезон

1

iTunes

iTunes

iTunes

1 сезон

RePack

30

ИГРА 18+

pack

ВАЖНО

!!Акция!!

Alien_RageХит недели

RePack

MK11
pack

Забери бонус

RePack

jed

!!Акция!!

Alien_Rage

RePack

fifa19

RePack

Assassins Creed: Odyssey

RePack

NEED FOR SPEED™ PAYBACK

4 сезон

9 сезон

Бесстыжие 9 сезон

Все сериалы

все сериалы на PB.wtf

RePack

FAR CRY 5
  

Бойцовский клуб / Fight Club (Дэвид Финчер / David Fincher) [1999, триллер, драма, криминал, BDRip 1080p] Dub + 5xMVO + 8xAVO (Алексеев, Латышев, Кузнецов, Наумов, Рябов, Визгунов, Завгородний, Гаврилов) + Original + Sub (Rus, Ukr, Eng) pb.wtf

Бойцовский клуб через торрент pb.wtf

Размер: 27.55 GB | Добавлен: 5 лет 5 мес. назад | Торрент скачан:67 раз
Скачать  

09-05-2015 10:33 Бойцовский клуб Скачать торрент  

Бойцовский клуб / Fight Club
«Интриги. Хаос. Мыло»



Год выпуска: 1999
Страна: США, Германия
Жанр: триллер, драма, криминал
Продолжительность: 02:19:09
Перевод: Дублированный [Лицензия]
Субтитры: Русские (Forced + Full), Украинские (Full, )Английские (Full)



Режиссер:
  • Дэвид Финчер / David Fincher
В ролях:
  • Эдвард Нортон, Брэд Питт, Хелена Бонем Картер, Мит Лоаф, Зэк Гренье, Холт МакКэллани, Джаред Лето, Эйон Бэйли, Ричмонд Аркетт, Дэвид Эндрюс, Джордж Магуайр, Эжени Бондюран
Описание: Терзаемый хронической бессонницей и отчаянно пытающийся вырваться из мучительно скучной жизни, клерк встречает некоего Тайлера Дардена, харизматического торговца мылом с извращенной философией. Тайлер уверен, что самосовершенствование - удел слабых, а саморазрушение - единственное, ради чего стоит жить.
Пройдет немного времени, и вот уже главные герои лупят друг друга почем зря на стоянке перед баром, и очищающий мордобой доставляет им высшее блаженство. Приобщая других мужчин к простым радостям физической жестокости, они основывают тайный Бойцовский Клуб, который имеет огромный успех. Но в концовке фильма всех ждет шокирующее открытие, которое может привести к непредсказуемым событиям...



Качество: BDRip 1080p
Формат: MKV
Видео кодек: AVC
Аудио кодек: AC3 / DTS
Видео: 1920x800 (2.40:1), 23,976 fps, 14648 kbps, 0,398 bpp
Аудио №1: русский, 48 kHz, DTS, 5.1 ch, 755 kbps | Дубляж, Blu-ray CEE
Аудио №2: русский, 48 kHz, DTS, 5.1 ch, 1510 kbps | Многоголосый закадровый, Карусель
Аудио №3: русский, 48 kHz, AC3, 2.0 ch, 192 kbps | Многоголосый закадровый, РТР
Аудио №4: русский, 48 kHz, AC3, 5.1 ch, 448 kbps | Многоголосый закадровый, Позитив-Мультимедиа/Киномания
Аудио №5: русский, 48 kHz, AC3, 5.1 ch, 448 kbps | Многоголосый закадровый, Позитив-Мультимедиа (переиздание)
Аудио №6: русский, 48 kHz, AC3, 5.1 ch, 448 kbps | Многоголосый закадровый, Tycoon
Аудио №7: русский, 48 kHz, DTS, 5.1 ch, 755 kbps | Одноголосый закадровый, А.Алексеев
Аудио №8: русский, 48 kHz, DTS, 5.1 ch, 755 kbps | Одноголосый закадровый, А.Латышев (CDV)
Аудио №9: русский, 48 kHz, DTS, 5.1 ch, 755 kbps | Одноголосый закадровый, C.Кузнецов
Аудио №10: русский, 48 kHz, DTS, 5.1 ch, 755 kbps | Одноголосый закадровый, К.Наумов
Аудио №11: русский, 48 kHz, DTS, 5.1 ch, 755 kbps | Одноголосый закадровый, С.Рябов
Аудио №12: русский, 48 kHz, DTS, 5.1 ch, 1510 kbps | Одноголосый закадровый, С.Визгунов
Аудио №13: русский, 48 kHz, DTS, 5.1 ch, 1510 kbps | Одноголосый закадровый, В.Завгородний
Аудио №14: русский, 48 kHz, DTS, 5.1 ch, 1510 kbps | Одноголосый закадровый, А.Гаврилов
Аудио №15: английский, 48 kHz, DTS, 5.1 ch, 1510 kbps


Код:

Общее
Уникальный идентификатор                 : 240587404069888384515345564371624249317 (0xB4FF72D5BFE10EAE91B1A27ABFDDC7E5)
Полное имя                               : D:\Бойцовский клуб [10th Anniversary Edition] (1999) 1080p BDRip.mkv
Формат                                   : Matroska
Версия формата                           : Version 4 / Version 2
Размер файла                             : 27,6 Гбайт
Продолжительность                        : 2 ч. 19 м.
Общий поток                              : 28,3 Мбит/сек
Дата кодирования                         : UTC 2015-04-26 12:23:41
Программа кодирования                    : mkvmerge v6.9.1 ('Blue Panther') 32bit built on Apr 18 2014 18:15:44
Библиотека кодирования                   : libebml v1.3.0 + libmatroska v1.4.1
Attachements                             : cover.jpg

Видео
Идентификатор                            : 1
Формат                                   : AVC
Формат/Информация                        : Advanced Video Codec
Профиль формата                          : High@L4.1
Параметр CABAC формата                   : Да
Параметр ReFrames формата                : 4 кадра
Идентификатор кодека                     : V_MPEG4/ISO/AVC
Продолжительность                        : 2 ч. 19 м.
Битрейт                                  : 14,6 Мбит/сек
Ширина                                   : 1920 пикселей
Высота                                   : 800 пикселей
Соотношение сторон                       : 2,40:1
Режим частоты кадров                     : Постоянный
Частота кадров                           : 23,976 кадра/сек
Цветовое пространство                    : YUV
Субдискретизация насыщенности            : 4:2:0
Битовая глубина                          : 8 бит
Тип развёртки                            : Прогрессивная
Бит/(Пиксели*Кадры)                      : 0.398
Размер потока                            : 13,7 Гбайт (50%)
Заголовок                                : ESiR
Библиотека кодирования                   : x264 core 79 r1342 e8501ef
Настройки программы                      : cabac=1 / ref=5 / deblock=1:-3:-3 / analyse=0x3:0x133 / me=esa / subme=10 / psy=1 / psy_rd=1.0:0.3 / mixed_ref=1 / me_range=24 / chroma_me=1 / trellis=2 / 8x8dct=1 / cqm=0 / deadzone=21,11 / chroma_qp_offset=-4 / threads=6 / nr=0 / decimate=0 / mbaff=0 / constrained_intra=0 / bframes=5 / b_pyramid=1 / b_adapt=2 / b_bias=0 / direct=3 / wpredb=1 / wpredp=2 / keyint=250 / keyint_min=25 / scenecut=40 / rc=2pass / mbtree=0 / bitrate=14648 / ratetol=1.0 / qcomp=0.60 / qpmin=10 / qpmax=30 / qpstep=4 / cplxblur=20.0 / qblur=0.5 / ip_ratio=1.40 / pb_ratio=1.30 / aq=1:0.70
Язык                                     : English
Default                                  : Да
Forced                                   : Нет
colour_range                             : Full

Аудио #1
Идентификатор                            : 2
Формат                                   : DTS
Формат/Информация                        : Digital Theater Systems
Режим                                    : 16
Параметр Endianness формата              : Big
Идентификатор кодека                     : A_DTS
Продолжительность                        : 2 ч. 19 м.
Вид битрейта                             : Постоянный
Битрейт                                  : 768 Кбит/сек
Каналы                                   : 6 каналов
Расположение каналов                     : Front: L C R, Side: L R, LFE
Частота                                  : 48,0 КГц
Битовая глубина                          : 24 бит
Метод сжатия                             : С потерями
Размер потока                            : 764 Мбайт (3%)
Заголовок                                : Дубляж, Blu-ray CEE
Язык                                     : Russian
Default                                  : Да
Forced                                   : Нет

Аудио #2
Идентификатор                            : 3
Формат                                   : DTS
Формат/Информация                        : Digital Theater Systems
Режим                                    : 16
Параметр Endianness формата              : Big
Идентификатор кодека                     : A_DTS
Продолжительность                        : 2 ч. 19 м.
Вид битрейта                             : Постоянный
Битрейт                                  : 1509 Кбит/сек
Каналы                                   : 6 каналов
Расположение каналов                     : Front: L C R, Side: L R, LFE
Частота                                  : 48,0 КГц
Битовая глубина                          : 24 бит
Метод сжатия                             : С потерями
Размер потока                            : 1,47 Гбайт (5%)
Заголовок                                : Многоголосый закадровый, Карусель
Язык                                     : Russian
Default                                  : Нет
Forced                                   : Нет

Аудио #3
Идентификатор                            : 4
Формат                                   : AC-3
Формат/Информация                        : Audio Coding 3
Расширение режима                        : CM (complete main)
Параметр Endianness формата              : Big
Идентификатор кодека                     : A_AC3
Продолжительность                        : 2 ч. 19 м.
Вид битрейта                             : Постоянный
Битрейт                                  : 192 Кбит/сек
Каналы                                   : 2 канала
Расположение каналов                     : Front: L R
Частота                                  : 48,0 КГц
Битовая глубина                          : 16 бит
Метод сжатия                             : С потерями
Размер потока                            : 191 Мбайт (1%)
Заголовок                                : Многоголосый закадровый, РТР
Язык                                     : Russian
Default                                  : Нет
Forced                                   : Нет

Аудио #4
Идентификатор                            : 5
Формат                                   : AC-3
Формат/Информация                        : Audio Coding 3
Расширение режима                        : CM (complete main)
Параметр Endianness формата              : Big
Идентификатор кодека                     : A_AC3
Продолжительность                        : 2 ч. 19 м.
Вид битрейта                             : Постоянный
Битрейт                                  : 448 Кбит/сек
Каналы                                   : 6 каналов
Расположение каналов                     : Front: L C R, Side: L R, LFE
Частота                                  : 48,0 КГц
Битовая глубина                          : 16 бит
Метод сжатия                             : С потерями
Размер потока                            : 446 Мбайт (2%)
Заголовок                                : Многоголосый закадровый, Позитив-Мультимедиа/Киномания
Язык                                     : Russian
Default                                  : Нет
Forced                                   : Нет

Аудио #5
Идентификатор                            : 6
Формат                                   : AC-3
Формат/Информация                        : Audio Coding 3
Расширение режима                        : CM (complete main)
Параметр Endianness формата              : Big
Идентификатор кодека                     : A_AC3
Продолжительность                        : 2 ч. 19 м.
Вид битрейта                             : Постоянный
Битрейт                                  : 448 Кбит/сек
Каналы                                   : 6 каналов
Расположение каналов                     : Front: L C R, Side: L R, LFE
Частота                                  : 48,0 КГц
Битовая глубина                          : 16 бит
Метод сжатия                             : С потерями
Размер потока                            : 446 Мбайт (2%)
Заголовок                                : Многоголосый закадровый, Позитив-Мультимедиа (переиздание)
Язык                                     : Russian
Default                                  : Нет
Forced                                   : Нет

Аудио #6
Идентификатор                            : 7
Формат                                   : AC-3
Формат/Информация                        : Audio Coding 3
Расширение режима                        : CM (complete main)
Параметр Endianness формата              : Big
Идентификатор кодека                     : A_AC3
Продолжительность                        : 2 ч. 19 м.
Вид битрейта                             : Постоянный
Битрейт                                  : 448 Кбит/сек
Каналы                                   : 6 каналов
Расположение каналов                     : Front: L C R, Side: L R, LFE
Частота                                  : 48,0 КГц
Битовая глубина                          : 16 бит
Метод сжатия                             : С потерями
Размер потока                            : 446 Мбайт (2%)
Заголовок                                : Многоголосый закадровый, Tycoon
Язык                                     : Russian
Default                                  : Нет
Forced                                   : Нет

Аудио #7
Идентификатор                            : 8
Формат                                   : DTS
Формат/Информация                        : Digital Theater Systems
Режим                                    : 16
Параметр Endianness формата              : Big
Идентификатор кодека                     : A_DTS
Продолжительность                        : 2 ч. 19 м.
Вид битрейта                             : Постоянный
Битрейт                                  : 768 Кбит/сек
Каналы                                   : 6 каналов
Расположение каналов                     : Front: L C R, Side: L R, LFE
Частота                                  : 48,0 КГц
Битовая глубина                          : 24 бит
Метод сжатия                             : С потерями
Размер потока                            : 764 Мбайт (3%)
Заголовок                                : Одноголосый закадровый, А.Алексеев
Язык                                     : Russian
Default                                  : Нет
Forced                                   : Нет

Аудио #8
Идентификатор                            : 9
Формат                                   : DTS
Формат/Информация                        : Digital Theater Systems
Режим                                    : 16
Параметр Endianness формата              : Big
Идентификатор кодека                     : A_DTS
Продолжительность                        : 2 ч. 19 м.
Вид битрейта                             : Постоянный
Битрейт                                  : 768 Кбит/сек
Каналы                                   : 6 каналов
Расположение каналов                     : Front: L C R, Side: L R, LFE
Частота                                  : 48,0 КГц
Битовая глубина                          : 24 бит
Метод сжатия                             : С потерями
Размер потока                            : 764 Мбайт (3%)
Заголовок                                : Одноголосый закадровый, А.Латышев (CDV)
Язык                                     : Russian
Default                                  : Нет
Forced                                   : Нет

Аудио #9
Идентификатор                            : 10
Формат                                   : DTS
Формат/Информация                        : Digital Theater Systems
Режим                                    : 16
Параметр Endianness формата              : Big
Идентификатор кодека                     : A_DTS
Продолжительность                        : 2 ч. 19 м.
Вид битрейта                             : Постоянный
Битрейт                                  : 768 Кбит/сек
Каналы                                   : 6 каналов
Расположение каналов                     : Front: L C R, Side: L R, LFE
Частота                                  : 48,0 КГц
Битовая глубина                          : 24 бит
Метод сжатия                             : С потерями
Размер потока                            : 764 Мбайт (3%)
Заголовок                                : Одноголосый закадровый, C.Кузнецов
Язык                                     : Russian
Default                                  : Нет
Forced                                   : Нет

Аудио #10
Идентификатор                            : 11
Формат                                   : DTS
Формат/Информация                        : Digital Theater Systems
Режим                                    : 16
Параметр Endianness формата              : Big
Идентификатор кодека                     : A_DTS
Продолжительность                        : 2 ч. 19 м.
Вид битрейта                             : Постоянный
Битрейт                                  : 768 Кбит/сек
Каналы                                   : 6 каналов
Расположение каналов                     : Front: L C R, Side: L R, LFE
Частота                                  : 48,0 КГц
Битовая глубина                          : 24 бит
Метод сжатия                             : С потерями
Размер потока                            : 764 Мбайт (3%)
Заголовок                                : Одноголосый закадровый, К.Наумов
Язык                                     : Russian
Default                                  : Нет
Forced                                   : Нет

Аудио #11
Идентификатор                            : 12
Формат                                   : DTS
Формат/Информация                        : Digital Theater Systems
Режим                                    : 16
Параметр Endianness формата              : Big
Идентификатор кодека                     : A_DTS
Продолжительность                        : 2 ч. 19 м.
Вид битрейта                             : Постоянный
Битрейт                                  : 768 Кбит/сек
Каналы                                   : 6 каналов
Расположение каналов                     : Front: L C R, Side: L R, LFE
Частота                                  : 48,0 КГц
Битовая глубина                          : 24 бит
Метод сжатия                             : С потерями
Размер потока                            : 764 Мбайт (3%)
Заголовок                                : Одноголосый закадровый, С.Рябов
Язык                                     : Russian
Default                                  : Нет
Forced                                   : Нет

Аудио #12
Идентификатор                            : 13
Формат                                   : DTS
Формат/Информация                        : Digital Theater Systems
Режим                                    : 16
Параметр Endianness формата              : Big
Идентификатор кодека                     : A_DTS
Продолжительность                        : 2 ч. 19 м.
Вид битрейта                             : Постоянный
Битрейт                                  : 1510 Кбит/сек
Каналы                                   : 6 каналов
Расположение каналов                     : Front: L C R, Side: L R, LFE
Частота                                  : 48,0 КГц
Битовая глубина                          : 24 бит
Метод сжатия                             : С потерями
Размер потока                            : 1,47 Гбайт (5%)
Заголовок                                : Одноголосый закадровый, С.Визгунов
Язык                                     : Russian
Default                                  : Нет
Forced                                   : Нет

Аудио #13
Идентификатор                            : 14
Формат                                   : DTS
Формат/Информация                        : Digital Theater Systems
Режим                                    : 16
Параметр Endianness формата              : Big
Идентификатор кодека                     : A_DTS
Продолжительность                        : 2 ч. 19 м.
Вид битрейта                             : Постоянный
Битрейт                                  : 1509 Кбит/сек
Каналы                                   : 6 каналов
Расположение каналов                     : Front: L C R, Side: L R, LFE
Частота                                  : 48,0 КГц
Битовая глубина                          : 24 бит
Метод сжатия                             : С потерями
Размер потока                            : 1,47 Гбайт (5%)
Заголовок                                : Одноголосый закадровый, В.Завгородний
Язык                                     : Russian
Default                                  : Нет
Forced                                   : Нет

Аудио #14
Идентификатор                            : 15
Формат                                   : DTS
Формат/Информация                        : Digital Theater Systems
Режим                                    : 16
Параметр Endianness формата              : Big
Идентификатор кодека                     : A_DTS
Продолжительность                        : 2 ч. 19 м.
Вид битрейта                             : Постоянный
Битрейт                                  : 1509 Кбит/сек
Каналы                                   : 6 каналов
Расположение каналов                     : Front: L C R, Side: L R, LFE
Частота                                  : 48,0 КГц
Битовая глубина                          : 24 бит
Метод сжатия                             : С потерями
Размер потока                            : 1,47 Гбайт (5%)
Заголовок                                : Одноголосый закадровый, А.Гаврилов
Язык                                     : Russian
Default                                  : Нет
Forced                                   : Нет

Аудио #15
Идентификатор                            : 16
Формат                                   : DTS
Формат/Информация                        : Digital Theater Systems
Режим                                    : 16
Параметр Endianness формата              : Big
Идентификатор кодека                     : A_DTS
Продолжительность                        : 2 ч. 19 м.
Вид битрейта                             : Постоянный
Битрейт                                  : 1509 Кбит/сек
Каналы                                   : 6 каналов
Расположение каналов                     : Front: L C R, Side: L R, LFE
Частота                                  : 48,0 КГц
Битовая глубина                          : 24 бит
Метод сжатия                             : С потерями
Размер потока                            : 1,47 Гбайт (5%)
Заголовок                                : Оригинал
Язык                                     : English
Default                                  : Нет
Forced                                   : Нет

Текст #1
Идентификатор                            : 17
Формат                                   : UTF-8
Идентификатор кодека                     : S_TEXT/UTF8
Идентификатор кодека/Информация          : UTF-8 Plain Text
Заголовок                                : Forced
Язык                                     : Russian
Default                                  : Да
Forced                                   : Нет

Текст #2
Идентификатор                            : 18
Формат                                   : UTF-8
Идентификатор кодека                     : S_TEXT/UTF8
Идентификатор кодека/Информация          : UTF-8 Plain Text
Заголовок                                : Full, Позитив-Мультимедиа
Язык                                     : Russian
Default                                  : Нет
Forced                                   : Нет

Текст #3
Идентификатор                            : 19
Формат                                   : UTF-8
Идентификатор кодека                     : S_TEXT/UTF8
Идентификатор кодека/Информация          : UTF-8 Plain Text
Заголовок                                : Full, Tycoon
Язык                                     : Russian
Default                                  : Нет
Forced                                   : Нет

Текст #4
Идентификатор                            : 20
Формат                                   : UTF-8
Идентификатор кодека                     : S_TEXT/UTF8
Идентификатор кодека/Информация          : UTF-8 Plain Text
Заголовок                                : Full, Л.Живаев
Язык                                     : Russian
Default                                  : Нет
Forced                                   : Нет

Текст #5
Идентификатор                            : 21
Формат                                   : UTF-8
Идентификатор кодека                     : S_TEXT/UTF8
Идентификатор кодека/Информация          : UTF-8 Plain Text
Заголовок                                : Full
Язык                                     : Ukrainian
Default                                  : Нет
Forced                                   : Нет

Текст #6
Идентификатор                            : 22
Формат                                   : UTF-8
Идентификатор кодека                     : S_TEXT/UTF8
Идентификатор кодека/Информация          : UTF-8 Plain Text
Заголовок                                : Full
Язык                                     : English
Default                                  : Нет
Forced                                   : Нет

Меню
00:00:00.000                             : en:Fear Center (Main Titles)
00:02:08.378                             : en:Ground Zero
00:03:54.818                             : en:Insomnia
00:04:46.328                             : en:Nesting Instinct
00:06:21.923                             : en:Remaining Men Together
00:10:22.205                             : en:Power Animal
00:11:34.903                             : en:Marla
00:19:13.569                             : en:Single Serving Jack
00:21:41.175                             : en:Tyler
00:25:48.005                             : en:Jack's Nice Neat Flaming Shit
00:29:09.331                             : en:Lament for a Sofa
00:32:27.195                             : en:Odd Jobs
00:34:10.465                             : en:Hit Me
00:35:57.947                             : en:Paper Street
00:41:36.994                             : en:Welcome to Fight Club
00:47:18.961                             : en:Infectious Human Waste
00:48:37.873                             : en:Sport Fucking
01:00:18.281                             : en:Tyler's Secret Formula Soap
01:01:56.254                             : en:Chemical Burn
01:09:48.434                             : en:The Middle Children of History
01:14:57.952                             : en:Homework
01:15:47.626                             : en:Jack's Smirking Revenge
01:19:35.854                             : en:Project Mayhem
01:21:29.468                             : en:Human Sacrafice
01:27:38.545                             : en:Space Monkeys
01:35:36.981                             : en:Psycho Boy
01:37:48.071                             : en:A Near-Life Experience
01:41:26.789                             : en:Tyler Says Goodbye
01:45:07.468                             : en:Operation Latt Thunder
01:47:58.180                             : en:Deja Vu
01:50:34.878                             : en:Changeover
01:56:53.173                             : en:Mea Culpa
02:00:36.813                             : en:Castrating Cops
02:05:55.715                             : en:Kicking and Screaming
02:09:38.354                             : en:Walls of Jericho
02:15:53.979                             : en:End Credits

Бюджет фильма: $63 000 000
Премьера (мир): 10 сентября 1999
Премьера (РФ): 13 января 2000,
«Гемини»

Релиз на Blu-Ray: 17 декабря 2009,
«Двадцатый Век Фокс СНГ»,
...

Релиз на DVD: 9 августа 2007,
«Двадцатый Век Фокс СНГ»,
...
Данный релиз идеален для пополнения домашней коллекции BDRip'ов.
В релиз вшита русская обложка размером 520х600 пикселей (аналогичные размеры у всех обложек для данной категории), что позволяет предать визуальную красоту Ваших фильмов.
Так же релиз максимально наполнен аудио дорожками в высоком качестве и субтитрами в формате srt.
Раздача обновляемая! При выходе других авторских переводов, релиз будет обновлен!
Итак, посмотрим на примере, как будет выглядеть Ваша коллекция: скриншот  
К сожалению, далеко не все, встроенные в телевизор медиаплееры, умеют воспроизводить звук в формате "DTS".
Выходов несколько: либо скачать другую раздачу, в которой звук будет в формате "АС3", либо перекодировать из "DTS" в "АС3".
Так же можно воспроизвести фильм с Вашего персонального компьютера/ноутбука, подключенного к телевизору через провод HDMI.
Фильмы выпускаются для кинотеатров, с пропорциями 2.35:1. И в таком же виде обычно издаются на дисках.
Монитор 16:9 имеет пропорции 1.77:1 поэтому более широкоформатное кино будет отображаться с черными полосами.
Надо это просто принять, ведь так снимают многие кинокартины.
Но некоторые фильмы могут быть и на весь экран. Особенно сериалы.
В рипах обычно обрезают черные полосы, и получают разрешение 1920х800, где приблизительно 280 пикселей занимали, повторюсь, черные полосы на экране.
Пример кадра "на весь экран": скриншот  
Пример кадра "не на весь экран": скриншот  
pb.wtf



Скачать Бойцовский клуб через торрент http://i69.fastpic.ru/big/2015/0516/47/de59638de727cdc2402361371eca9247.png Скачать фильм Бойцовский клуб через торрент бесплантно в хорошем качестве Описание: Терзаемый хронической бессонницей и отчаянно пытающийся вырваться из мучительно скучной жизни, клерк встречает некоего Тайлера ... 10 10 9
Info! Золотая раздача, скачанное не засчитывается.
Торрент: Зарегистрирован [2015-05-09 10:41] · скачан: 67 раз
Статус: √ проверено
Размер: 27.55 GB
Как cкачать? Как скачать Бойцовский клуб через торрент | qTorrent

% Раздел Тема Автор DL S | L
Фильмы 2017 [DVDrip, WEB-DLRip, HDrip] (DUB, MVO) [ 745 MB ] Женский бойцовский клуб / Female Fight Club [2017 HDRip] MVO [Прайд Продакшн] surikmas Скачать
1 | 0
T Фильмы [HD 720p, 1080p] (Хороший звук DUB, MVO) [ 6.8 GB ] Женский бойцовский клуб / Female Fight Club [2017 BDRip 1080p] MVO bober100 Скачать
1 | 0
Фильмы (WEB-DL 720p, 1080p) [ 3.74 GB ] Женский бойцовский клуб / Female Fight Club [2017 WEB-DL 1080p] MVO [Прайд Продакшн] bober100 Скачать
1 | 0
Фильмы [HD 720p, 1080p] (Хороший звук DUB, MVO) [ 11.82 GB ] Бойцовский клуб / Fight Club [1999 BDRip 1080p HEVC +MVO] Мичман37 Скачать
2 | 0
National Geographic [ 13.2 GB ] Nat Geo Wild: Бойцовский клуб для животных. Лучшее / Animal Fight Club [01-06] [2018 ДокументальныйHDTV 1080i ] Armstrong Скачать
1 | 0
Ultra HD (UHD: 2K, 4K, 8K) — видео сверхвысокой чёткости [ 104.92 GB ] Бойцовский клуб / Fight Club [1999 UHD BDRemux 2160p] [Remastered] DUB + DVO + 4xMVO + 11xAVO + 2xMVO sheker187 Скачать
3 | 0
National Geographic [ 625 MB ] Nat Geo Wild: Бойцовский клуб для животных. Убийцы-гиганты / Animal Fight Club [2017 ДокументальныйHDTVRip ] Armstrong Скачать
1 | 0


Последний раз редактировалось: Seedtank (2015-05-16 10:13), всего редактировалось 2 раз(а)

28-11-2019 20:33  

Отключить всю рекламу на сайте

10-05-2015 17:37 Бойцовский клуб Скачать торрент  

Классный фильм!!!pb.wtf



14-03-2016 08:47 Бойцовский клуб Скачать торрент  

О, отлично! Дайте скоростиpb.wtf



01-08-2016 19:51 Бойцовский клуб Скачать торрент  

спасибо! раздайте !плс!1pb.wtf



    Дорогой пользователь! Огромная просьба, поблагодарите релизера, оцените раздачу и оставьте свои комментарий, если Вы скачали Бойцовский клуб через торрент бесплатно! Внесите свою лепту в развитие PiratBit!
    Комментировать посты могут только пользователи прошедшие не сложную регистрацию
    Показать сообщения:    

    Бойцовский клуб через торрент
    Скачать бесплатно Бойцовский клуб
    Бойцовский клуб скачать торрент
    Бойцовский клуб смотреть онлайн
    Cкачать фильм Бойцовский клуб бесплатно
    Бойцовский клуб скачать торрент в хорошем качестве
    Бойцовский клуб смотреть онлайн бесплатно в хорошем качестве


    Вы не можете начинать темы
    Вы не можете отвечать на сообщения
    Вы не можете редактировать свои сообщения
    Вы не можете удалять свои сообщения
    Вы не можете голосовать в опросах
    Вы не можете прикреплять файлы к сообщениям
    Вы можете скачивать файлы