Ссылка на приватное зеркало нашего сайта всего за 1$. Внимание количество ограничено!!!

2 сезон

iTunes

1 сезон

1

iTunes

iTunes

iTunes

1 сезон

RePack

30

ИГРА 18+

pack

ВАЖНО

!!Акция!!

Alien_RageХит недели

RePack

MK11
pack

Забери бонус

RePack

jed

!!Акция!!

Alien_Rage

RePack

fifa19

RePack

Assassins Creed: Odyssey

RePack

NEED FOR SPEED™ PAYBACK

4 сезон

9 сезон

Бесстыжие 9 сезон

Все сериалы

все сериалы на PB.wtf

RePack

FAR CRY 5
  

Шофёр мисс Дэйзи / Driving Miss Daisy (Брюс Бересфорд) [1989, драма, комедия, BDRip 720p] MVO, AVO pb.wtf

Шофёр мисс Дэйзи через торрент pb.wtf

Размер: 4.89 GB | Добавлен: 5 лет 5 мес. назад | Торрент скачан:39 раз
Скачать  

10-05-2015 14:21 Шофёр мисс Дэйзи Скачать торрент  


Название: Шофёр мисс Дэйзи
Оригинальное название: Driving Miss Daisy
Год выпуска: 1989
Страна: США
Жанр: драма, комедия
Продолжительность: 01:39:24
Перевод: профессиональный многоголосый, авторский

Режиссёр: Брюс Бересфорд

В ролях: Морган Фримен, Джессика Тэнди, Дэн Эйкройд, Патти ЛюПон, Эстер Ролли, Уильям Холл мл., Элвин М. Шугарман, Мюриэль Мур, Сильвия Калер, Кэролин Голд, Кристал Р. Фокс, Боб Ханна, Рэй МакКиннон, Эшли Джоуси, Джек Руссо, Индра А. Томас, Дин Дюбуа, Мартин Лютер Кинг, Д. Тейлор Лоб

Описание: В основе сюжета непростые взаимоотношения богатой американки еврейского происхождения и её водителя-афроамериканца. Действие фильма происходит в Атланте в 50-е годы XX века, когда расовые предрассудки были ещё сильны. Мисс Дэйзи вдова, и сын настаивает на найме для неё водителя. Она противится изменениям в своей жизни, отказывается ездить куда-либо с новым водителем. Но со временем Хоук завоёвывает не только её расположение, но и дружбу. Фильм рассказывает о поисках взаимопонимания между двумя очень разными людьми. И поиски эти занимают без малого двадцать лет.



Качество: BDRip 720p Сравнение с исходником
Формат: MKV
Видео кодек: H.264
Аудио кодек: AC3
Видео: MPEG-4 AVC, 5818 Kбит/с, 1280x720, 23,976 кадра/с
Аудио 1: русский, AC3, 448 kbps, 6 ch, 48 kHz [профессиональный многоголосый]
Аудио 2: русский, AC3, 192 kbps, 2 ch, 48 kHz [авторский, Пётр Карцев]
Аудио 3: английский, AC3, 448 kbps, 6 ch, 48 kHz [оригинал]
Субтитры: русские
Британская академия, 1991 год
Победитель (1):
Лучшая женская роль (Джессика Тэнди)

Номинации (3):
Лучший фильм
Лучший режиссер (Брюс Бересфорд)
Лучший адаптированный сценарий

Оскар, 1990 год
Победитель (4):
Лучший фильм
Лучшая женская роль (Джессика Тэнди)
Лучший адаптированный сценарий
Лучший грим

Номинации (5):
Лучшая мужская роль (Морган Фриман)
Лучшая мужская роль второго плана (Дэн Эйкройд)
Лучшие декорации
Лучшие костюмы
Лучший монтаж

Золотой глобус, 1990 год
Победитель (3):
Лучший фильм (комедия или мюзикл)
Лучшая мужская роль (комедия или мюзикл) (Морган Фриман)
Лучшая женская роль (комедия или мюзикл) (Джессика Тэнди)

Берлинский кинофестиваль, 1990 год
Победитель (1):
Серебряный Медведь - лучшая актерская команда

Номинации (1):
Золотой Медведь
frame I:873 Avg QP:18.08 size:123936
frame P:25935 Avg QP:19.14 size: 65992
frame B:116208 Avg QP:21.19 size: 22556

Общее
Уникальный идентификатор : 179291302551451951146586243050378922538 (0x86E23FB3A9F43D15B931E615B8488A2A)
Полное имя : D:VideoШофёр мисс Дэйзи.1989.BDRip.720p.mkv
Формат : Matroska
Версия формата : Version 4 / Version 2
Размер файла : 4,89 Гбайт
Продолжительность : 1 ч. 39 м.
Общий поток : 7046 Кбит/сек
Название фильма : BDRip -- STarankov
Дата кодирования : UTC 2015-05-09 16:11:32
Программа кодирования : mkvmerge v7.8.0 ('River Man') 64bit built on Mar 27 2015 16:31:37
Библиотека кодирования : libebml v1.3.1 + libmatroska v1.4.2
_STATISTICS_WRITING_APP : mkvmerge v7.8.0 ('River Man') 64bit built on Mar 27 2015 16:31:37
_STATISTICS_WRITING_DATE_UTC : 2015-05-09 16:11:32
_STATISTICS_TAGS : BPS DURATION NUMBER_OF_FRAMES NUMBER_OF_BYTES
DURATION : 01:34:48.933000000
NUMBER_OF_FRAMES : 1130
NUMBER_OF_BYTES : 59919

Видео
Идентификатор : 1
Формат : AVC
Формат/Информация : Advanced Video Codec
Профиль формата : High@L4.1
Параметр CABAC формата : Да
Параметр ReFrames формата : 9 кадров
Идентификатор кодека : V_MPEG4/ISO/AVC
Продолжительность : 1 ч. 39 м.
Битрейт : 5818 Кбит/сек
Ширина : 1280 пикселей
Высота : 720 пикселей
Соотношение сторон : 16:9
Режим частоты кадров : Постоянный
Частота кадров : 23,976 кадра/сек
Цветовое пространство : YUV
Субдискретизация насыщенности : 4:2:0
Битовая глубина : 8 бит
Тип развёртки : Прогрессивная
Бит/(Пиксели*Кадры) : 0.263
Размер потока : 4,04 Гбайт (83%)
Библиотека кодирования : x264 core 146 r2538 121396c
Настройки программы : cabac=1 / ref=9 / deblock=1:-1:-1 / analyse=0x3:0x113 / me=umh / subme=10 / psy=1 / psy_rd=1.00:0.15 / mixed_ref=1 / me_range=32 / chroma_me=1 / trellis=2 / 8x8dct=1 / cqm=0 / deadzone=21,11 / fast_pskip=1 / chroma_qp_offset=-3 / threads=6 / lookahead_threads=1 / sliced_threads=0 / nr=0 / decimate=1 / interlaced=0 / bluray_compat=0 / constrained_intra=0 / bframes=8 / b_pyramid=2 / b_adapt=2 / b_bias=0 / direct=1 / weightb=1 / open_gop=0 / weightp=2 / keyint=230 / keyint_min=23 / scenecut=40 / intra_refresh=0 / rc_lookahead=40 / rc=crf / mbtree=0 / crf=19.0 / qcomp=0.60 / qpmin=0 / qpmax=69 / qpstep=4 / vbv_maxrate=40000 / vbv_bufsize=50000 / crf_max=0.0 / nal_hrd=none / filler=0 / ip_ratio=1.40 / pb_ratio=1.30 / aq=1:1.00
Язык : English
Default : Да
Forced : Нет
DURATION : 01:39:24.959000000
NUMBER_OF_FRAMES : 143016
NUMBER_OF_BYTES : 4440909284
_STATISTICS_WRITING_APP : mkvmerge v7.8.0 ('River Man') 64bit built on Mar 27 2015 16:31:37
_STATISTICS_WRITING_DATE_UTC : 2015-05-09 16:11:32
_STATISTICS_TAGS : BPS DURATION NUMBER_OF_FRAMES NUMBER_OF_BYTES

Аудио #1
Идентификатор : 2
Формат : AC-3
Формат/Информация : Audio Coding 3
Расширение режима : CM (complete main)
Параметр Endianness формата : Big
Идентификатор кодека : A_AC3
Продолжительность : 1 ч. 39 м.
Вид битрейта : Постоянный
Битрейт : 448 Кбит/сек
Каналы : 6 каналов
Расположение каналов : Front: L C R, Side: L R, LFE
Частота : 48,0 КГц
Битовая глубина : 16 бит
Метод сжатия : С потерями
Размер потока : 319 Мбайт (6%)
Заголовок : MVO
Язык : Russian
Default : Да
Forced : Нет

Аудио #2
Идентификатор : 3
Формат : AC-3
Формат/Информация : Audio Coding 3
Профиль формата : Dolby Digital
Расширение режима : CM (complete main)
Параметр Endianness формата : Big
Идентификатор кодека : A_AC3
Продолжительность : 1 ч. 39 м.
Вид битрейта : Постоянный
Битрейт : 192 Кбит/сек
Каналы : 2 канала
Расположение каналов : Front: L R
Частота : 48,0 КГц
Битовая глубина : 16 бит
Метод сжатия : С потерями
Размер потока : 137 Мбайт (3%)
Заголовок : AVO (Пётр Карцев)
Язык : Russian
Default : Нет
Forced : Нет

Аудио #3
Идентификатор : 4
Формат : AC-3
Формат/Информация : Audio Coding 3
Расширение режима : CM (complete main)
Параметр Endianness формата : Big
Идентификатор кодека : A_AC3
Продолжительность : 1 ч. 39 м.
Вид битрейта : Постоянный
Битрейт : 448 Кбит/сек
Каналы : 6 каналов
Расположение каналов : Front: L C R, Side: L R, LFE
Частота : 48,0 КГц
Битовая глубина : 16 бит
Метод сжатия : С потерями
Размер потока : 319 Мбайт (6%)
Заголовок : Original
Язык : English
Default : Нет
Forced : Нет

Текст
Идентификатор : 5
Формат : UTF-8
Идентификатор кодека : S_TEXT/UTF8
Идентификатор кодека/Информация : UTF-8 Plain Text
Заголовок : русские
Язык : Russian
Default : Нет
Forced : Нет
pb.wtf



Скачать Шофёр мисс Дэйзи через торрент http://i60.fastpic.ru/big/2015/0510/11/5c60c5073cf9576ba026d7ffc8099411.jpg Скачать фильм Шофёр мисс Дэйзи через торрент бесплантно в хорошем качестве Описание: В основе сюжета непростые взаимоотношения богатой американки еврейского происхождения и её водителя-афроамериканца. Действие ... 6.3 10 3
Торрент: Зарегистрирован [2015-05-10 14:21] · скачан: 39 раз
Статус: √ проверено
Размер: 4.89 GB
Как cкачать? Как скачать Шофёр мисс Дэйзи через торрент | qTorrent

% Раздел Тема Автор DL S | L
Фильмы [HD 720p, 1080p] (Хороший звук DUB, MVO) [ 11.77 GB ] Шофёр мисс Дэйзи / Driving Miss Daisy [1989 BDRip 1080p] MVO AVO msltel Скачать
1 | 0
Фильмы до 2000 г. [ 3.15 GB ] Шофёр мисс Дэйзи / Driving Miss Daisy [1989 BDRip AVC] MVO AVO msltel Скачать
1 | 0

28-11-2019 20:33  

Отключить всю рекламу на сайте

    Дорогой пользователь! Огромная просьба, поблагодарите релизера, оцените раздачу и оставьте свои комментарий, если Вы скачали Шофёр мисс Дэйзи через торрент бесплатно! Внесите свою лепту в развитие PiratBit!
    Комментировать посты могут только пользователи прошедшие не сложную регистрацию
    Показать сообщения:    

    Шофёр мисс Дэйзи через торрент
    Скачать бесплатно Шофёр мисс Дэйзи
    Шофёр мисс Дэйзи скачать торрент
    Шофёр мисс Дэйзи смотреть онлайн
    Cкачать фильм Шофёр мисс Дэйзи бесплатно
    Шофёр мисс Дэйзи скачать торрент в хорошем качестве
    Шофёр мисс Дэйзи смотреть онлайн бесплатно в хорошем качестве


    Вы не можете начинать темы
    Вы не можете отвечать на сообщения
    Вы не можете редактировать свои сообщения
    Вы не можете удалять свои сообщения
    Вы не можете голосовать в опросах
    Вы не можете прикреплять файлы к сообщениям
    Вы можете скачивать файлы