Ссылка на приватное зеркало всего за 1$. Внимание количество ограничено!!!

OK

1+1

iTunes

мы

OK

1

WEB-DLRip

Джокер

Пифагор

Ведьмак / The Witcher сериал

Лицензия

ПШазам

ОК

Оно 2

iTunes

30
pack

Вам бонус

ВАЖНО

!!Акция!!

Alien_RageХит недели

RePack

Resident Evil 21

ИГРА 18+

pack

RePack

jed

RePack

fifa19

RePack

Assassins Creed: Odyssey

RePack

NEED FOR SPEED™ PAYBACK

4 сезон

9 сезон

Бесстыжие 9 сезон

Все сериалы

все сериалы на PB.wtf

RePack

FAR CRY 5
  

Посланники / The Messengers / Сезон: 1 / Серии 1-6 из 13 (Дуан Кларк) [2015, США, фантастика, WEB-DLRip, MVO] [NewStudio] pb.wtf

Посланники через торрент pb.wtf

Размер: 3.22 GB | Добавлен: 4 года 7 мес. назад | Торрент скачан:47 раз
Скачать  

10-05-2015 16:53 Посланники Скачать торрент  


✦ ПОСЛАННИКИ ✦
Информация о фильме:

✦ Год выхода: 2015

✦ Жанр: Фантастика

✦ Название: Посланники

✦ Оригинальное название: The Messengers

✦ Режиссер: Дуан Кларк, Гай Норман Би, Джеймс Л. Конуэй

✦ В ролях: Диого Моргадо, Шантель Ван Сантен, Дж.Д. Пардо, Элиес Габел, София Блэк-Д’Элиа, Джоэл Кортни, Лэйн Гаррисон, Крэйг Фрэнк, Лекси Аткинс, Виктор Слезак


Описание фильма:

Когда таинственный объект падает на Землю, несколько незнакомцев умирают от энергетического импульса — но затем просыпаются. Они узнают, что ответственны за предотвращение грядущего Апокалипсиса.



✦ Страна: США

✦ Продолжительность: ~ 00:43:00 серия

✦ Перевод: профессиональный (многоголосый, закадровый) -
NewStudio



Информация о файле:

✦ Качество: WEB-DLRip

✦ Формат: Avi

✦ Видео кодек: XviD

✦ Аудио кодек: mp3

✦ Видео: 720x400, 1739 kbps, 23,976 fps

✦ Аудио Rus: 128 kbps, 2 ch, 48,0 КГц

✦ Аудио Eng: 128 kbps, 2 ch, 48,0 КГц

✦ Субтитры: отсутствуют
Когда раздача ведётся путём добавления новых серий, при каждом добавлении создётся новый торрент. Чтобы начать докачку новой серии, пользователям необходимо сделать следующее:

(1) остановить скачивание,

(2) удалить старый торрент у себя из клиента (старые серии удалять не надо),

(3) скачать новый торрент и запустить его у себя в клиенте вместо старого, при этом указать клиенту путь в старую папку, куда и должно происходить скачивание новых серий.

Ваш клиент при этом должен произвести хеширование (проверку) старой папки (если не производит сам - помогите ему сделать это), и будет докачивать только те серии, которых у вас ещё нет. Старые серии при этом не удаляются, а продолжают раздаваться!

Eсли вы уже удалили старые серии, то предотвратить повторную закачку старых серий можно, отжав галочку в соответсвующих местах при запуске нового торрента. По возможности, желательно не удалять старые серии как можно дольше, чтобы релизёр не столько продолжал раздавать старые серии, а смог сконцентрироваться на новых.
Общее
Полное имя : D:\uTorrent\The Messengers (S01) NewStudio\The.Messengers.s01e03.WEBDLRip.NewStudio.TV.avi
Формат : AVI
Формат/Информация : Audio Video Interleave
Размер файла : 550 Мбайт
Продолжительность : 38 м.
Общий поток : 2009 Кбит/сек
Программа кодирования : VirtualDubMod 1.5.10.2 (build 2540/release)
Библиотека кодирования : VirtualDubMod build 2540/release

Видео
Идентификатор : 0
Формат : MPEG-4 Visual
Профиль формата : Advanced Simple@L5
Параметр BVOP формата : 2
Параметр QPel формата : Нет
Параметр GMC формата : Без точки перехода
Параметр матрицы формата : Default (MPEG)
Идентификатор кодека : XVID
Идентификатор кодека/Подсказка : XviD
Продолжительность : 38 м.
Битрейт : 1739 Кбит/сек
Ширина : 720 пикселей
Высота : 400 пикселей
Соотношение сторон : 16:9
Частота кадров : 23,976 кадра/сек
Цветовое пространство : YUV
Субдискретизация насыщенности : 4:2:0
Битовая глубина : 8 бит
Тип развёртки : Прогрессивная
Метод сжатия : С потерями
Бит/(Пиксели*Кадры) : 0.252
Размер потока : 476 Мбайт (87%)
Библиотека кодирования : XviD 64

Аудио #1
Идентификатор : 1
Формат : MPEG Audio
Версия формата : Version 1
Профиль формата : Layer 3
Режим : Joint stereo
Расширение режима : MS Stereo
Идентификатор кодека : 55
Идентификатор кодека/Подсказка : MP3
Продолжительность : 38 м.
Вид битрейта : Постоянный
Битрейт : 128 Кбит/сек
Каналы : 2 канала
Частота : 48,0 КГц
Метод сжатия : С потерями
Размер потока : 35,0 Мбайт (6%)
Выравнивание : Соединение по промежуткам
Продолжительность промежутка : 42 мс. (1,00 видеокадр)
Время предзагрузки промежутка : 504 мс.

Аудио #2
Идентификатор : 2
Формат : MPEG Audio
Версия формата : Version 1
Профиль формата : Layer 3
Режим : Joint stereo
Расширение режима : MS Stereo
Идентификатор кодека : 55
Идентификатор кодека/Подсказка : MP3
Продолжительность : 38 м.
Вид битрейта : Постоянный
Битрейт : 128 Кбит/сек
Каналы : 2 канала
Частота : 48,0 КГц
Метод сжатия : С потерями
Размер потока : 35,0 Мбайт (6%)
Выравнивание : Соединение по промежуткам
Продолжительность промежутка : 42 мс. (1,00 видеокадр)
Время предзагрузки промежутка : 504 мс.
Библиотека кодирования : LAME3.99r
Настройки программы : -m j -V 4 -q 2 -lowpass 17 -b 128


Добавлена 4 серия сериала!!! Просьба обновите торрент!!! Приятного просмотра!!! pb.wtf



Скачать Посланники через торрент http://i60.fastpic.ru/big/2015/0418/2b/efa0c12d4a7d780c062c9b03f86b872b.png Скачать фильм Посланники через торрент бесплантно в хорошем качестве Описание фильма:Когда таинственный объект падает на Землю, несколько незнакомцев умирают от энергетического импульса — но затем ... 9.7 10 6
Торрент: Зарегистрирован [2015-05-29 19:35] · скачан: 47 раз
Статус: √ проверено
Размер: 3.22 GB
Как cкачать? Как скачать Посланники через торрент | qTorrent

28-11-2019 20:33  

Отключить всю рекламу на сайте

    Дорогой пользователь! Огромная просьба, поблагодарите релизера, оцените раздачу и оставьте свои комментарий, если Вы скачали Посланники через торрент бесплатно! Внесите свою лепту в развитие PiratBit!
    Комментировать посты могут только пользователи прошедшие не сложную регистрацию
    Показать сообщения:    

    Посланники через торрент
    Скачать бесплатно Посланники
    Посланники скачать торрент
    Посланники смотреть онлайн
    Cкачать фильм Посланники бесплатно
    Посланники скачать торрент в хорошем качестве
    Посланники смотреть онлайн бесплатно в хорошем качестве


    Вы не можете начинать темы
    Вы не можете отвечать на сообщения
    Вы не можете редактировать свои сообщения
    Вы не можете удалять свои сообщения
    Вы не можете голосовать в опросах
    Вы не можете прикреплять файлы к сообщениям
    Вы можете скачивать файлы