Ссылка на приватное зеркало нашего сайта всего за 1$. Внимание количество ограничено!!!

2 сезон

iTunes

1 сезон

1

iTunes

iTunes

iTunes

1 сезон

RePack

30

ИГРА 18+

pack

ВАЖНО

!!Акция!!

Alien_RageХит недели

RePack

MK11
pack

Забери бонус

RePack

jed

!!Акция!!

Alien_Rage

RePack

fifa19

RePack

Assassins Creed: Odyssey

RePack

NEED FOR SPEED™ PAYBACK

4 сезон

9 сезон

Бесстыжие 9 сезон

Все сериалы

все сериалы на PB.wtf

RePack

FAR CRY 5
  

Пища богов / Feed the Gods (Браден Крофт / Braden Croft) [2014, Канада, ужасы, триллер, приключения, WEB-DLRip, Любительский (двухголосый)[den904, DeadSno] + ENG pb.wtf

Пища богов через торрент pb.wtf

Размер: 1.44 GB | Добавлен: 5 лет 5 мес. назад | Торрент скачан:226 раз
Скачать  

11-05-2015 02:27 Пища богов Скачать торрент  

Пища богов / Feed the Gods


  • Год выпуска: 2014
  • Страна: Канада
  • Жанр: ужасы, триллер, приключения
  • Продолжительность: 01:23:30
  • Перевод: Любительский (двухголосый)[den904, DeadSno], перевод [Antonio]

  • Режиссер: Браден Крофт / Braden Croft
  • В ролях:

    Эрика Кэрролл (Janet Oates), Шон Робертс (Will), Эмили Теннант (Brit), Тайлер Джонстон (Kris), Бриттни Ирвин (Emma), Гари Чок, Кристин Уиллз (Baba), Алекс Паунович (Pete), Тара Уилсон (Shanna), Лэйн Эдвардс (Hank), Джерри Вассерман (Vincent), Эдуард Вицке (Curtis)

  • Описание:
    После смерти приемной матери, два брата с подружкой находят видеокассету и данные о том городе где они родились и решают отправиться на поиски своих родителей. По прибытию в город они начинают понимать, что с самим городом и оставшимися немногочисленными жителями происходит что-то странное и ведут все себя при этом - весьма подозрительно...
  • Рейтинг:



  • Качество: WEB-DLRip
  • Формат: :AVI
  • Видео кодек: XviD
  • Аудио кодек: AC3
  • Видео: 720x304 (2.35:1), 1880 kbps, 23,976 fps, 0,358 bpp
  • Аудио №1: Русский 2.0 / 48 kHz / 192 kbps / 16 bit
  • Аудио №2: Английский 5.1 / 48 kHz / 384 kbps / 16 bit
  • Релиз от: GEKADOL

    Код:

    General
    Complete name                            : E:\Feed.the.Gods.2014.L2.WEB-DLRip.avi
    Format                                   : AVI
    Format/Info                              : Audio Video Interleave
    File size                                : 1.44 GiB
    Duration                                 : 1h 23mn
    Overall bit rate                         : 2 470 Kbps
    Writing application                      : VirtualDubMod 1.5.10.3 | www.virtualdub-fr.org || (build 2550/release)
    Writing library                          : VirtualDubMod build 2550/release

    Video
    ID                                       : 0
    Format                                   : MPEG-4 Visual
    Format profile                           : Advanced Simple@L5
    Format settings, BVOP                    : 1
    Format settings, QPel                    : No
    Format settings, GMC                     : No warppoints
    Format settings, Matrix                  : Custom
    Codec ID                                 : XVID
    Codec ID/Hint                            : XviD
    Duration                                 : 1h 23mn
    Bit rate                                 : 1 880 Kbps
    Width                                    : 720 pixels
    Height                                   : 304 pixels
    Display aspect ratio                     : 2.35:1
    Frame rate                               : 23.976 fps
    Color space                              : YUV
    Chroma subsampling                       : 4:2:0
    Bit depth                                : 8 bits
    Scan type                                : Progressive
    Compression mode                         : Lossy
    Bits/(Pixel*Frame)                       : 0.358
    Stream size                              : 1.10 GiB (76%)
    Writing library                          : XviD 73

    Audio #1
    ID                                       : 1
    Format                                   : AC-3
    Format/Info                              : Audio Coding 3
    Mode extension                           : CM (complete main)
    Codec ID                                 : 2000
    Duration                                 : 1h 23mn
    Bit rate mode                            : Constant
    Bit rate                                 : 192 Kbps
    Channel(s)                               : 2 channels
    Channel positions                        : Front: L R
    Sampling rate                            : 48.0 KHz
    Bit depth                                : 16 bits
    Compression mode                         : Lossy
    Delay relative to video                  : 23ms
    Stream size                              : 115 MiB (8%)
    Alignment                                : Split accross interleaves
    Interleave, duration                     : 42 ms (1.00 video frame)
    Interleave, preload duration             : 500 ms

    Audio #2
    ID                                       : 2
    Format                                   : AC-3
    Format/Info                              : Audio Coding 3
    Mode extension                           : CM (complete main)
    Codec ID                                 : 2000
    Duration                                 : 1h 23mn
    Bit rate mode                            : Constant
    Bit rate                                 : 384 Kbps
    Channel(s)                               : 6 channels
    Channel positions                        : Front: L C R, Side: L R, LFE
    Sampling rate                            : 48.0 KHz
    Bit depth                                : 16 bits
    Compression mode                         : Lossy
    Stream size                              : 229 MiB (16%)
    Alignment                                : Split accross interleaves
    Interleave, duration                     : 42 ms (1.00 video frame)
    Interleave, preload duration             : 500 ms




    Внимание: присутствует ненормативная лексика!!!!
    Скриншоты:



    pb.wtf



  • Скачать Пища богов через торрент http://i6.imageban.ru/out/2015/05/11/3622ccc7158dcf69575cdd84a0257466.jpg Скачать фильм Пища богов через торрент бесплантно в хорошем качестве Описание: После смерти приемной матери, два брата с подружкой находят видеокассету и данные о том городе где они родились и решают ... 9.9 10 8
    Торрент: Зарегистрирован [2015-05-11 02:27] · скачан: 226 раз
    Статус: √ проверено
    Размер: 1.44 GB
    Как cкачать? Как скачать Пища богов через торрент | qTorrent

    % Раздел Тема Автор DL S | L
    T Фильмы (WEB-DL 720p, 1080p) [ 2.47 GB ] Пища богов / Feed the Gods [2014 WEB-DL 720p Любительский [den904 DeadSno] + ENG GEKADOL Скачать
    1 | 0

    28-11-2019 20:33  

    Отключить всю рекламу на сайте

      Дорогой пользователь! Огромная просьба, поблагодарите релизера, оцените раздачу и оставьте свои комментарий, если Вы скачали Пища богов через торрент бесплатно! Внесите свою лепту в развитие PiratBit!
      Комментировать посты могут только пользователи прошедшие не сложную регистрацию
      Показать сообщения:    

      Пища богов через торрент
      Скачать бесплатно Пища богов
      Пища богов скачать торрент
      Пища богов смотреть онлайн
      Cкачать фильм Пища богов бесплатно
      Пища богов скачать торрент в хорошем качестве
      Пища богов смотреть онлайн бесплатно в хорошем качестве


      Вы не можете начинать темы
      Вы не можете отвечать на сообщения
      Вы не можете редактировать свои сообщения
      Вы не можете удалять свои сообщения
      Вы не можете голосовать в опросах
      Вы не можете прикреплять файлы к сообщениям
      Вы можете скачивать файлы