Ссылка на приватное зеркало нашего сайта всего за 1$. Внимание количество ограничено!!!

2 сезон

iTunes

1 сезон

1

iTunes

iTunes

iTunes

1 сезон

RePack

30

ИГРА 18+

pack

ВАЖНО

!!Акция!!

Alien_RageХит недели

RePack

MK11
pack

Забери бонус

RePack

jed

!!Акция!!

Alien_Rage

RePack

fifa19

RePack

Assassins Creed: Odyssey

RePack

NEED FOR SPEED™ PAYBACK

4 сезон

9 сезон

Бесстыжие 9 сезон

Все сериалы

все сериалы на PB.wtf

RePack

FAR CRY 5
  

Соседка / La femme d'a cote (Франсуа Трюффо) [1981, драма, мелодрама, BDRip 720p] MVO pb.wtf

Соседка через торрент pb.wtf

Размер: 4.05 GB | Добавлен: 5 лет 5 мес. назад | Торрент скачан:18 раз
Скачать  

11-05-2015 06:26 Соседка Скачать торрент  


Название: Соседка
Оригинальное название: La Femme d'а cote
Год выпуска: 1981
Страна: Франция
Жанр: драма, мелодрама
Продолжительность: 01:45:20
Перевод: профессиональный многоголосый

Режиссёр: Франсуа Трюффо

В ролях: Жерар Депардьё, Фанни Ардан, Анри Гарсен, Мишель Бомгартнер, Рогер Ван Хол, Вероник Сильвер, Филипп Морье-Жану, Николь Вотье, Мюриэль Комбе, Оливье Бекар

Описание: Бернар Кудре - образцовый семьянин, проживающий в пригороде с любящей красавицей-женой и малолетним сынишкой. Их упорядоченная провинциальная жизнь течёт своим чередом, пока в один роковой день в дом по соседству не въезжают Филипп и Матильда Бошары. В последней Бернар узнает женщину, с которой семь лет назад пережил бурный роман. Встретившись снова, былые любовники оказываются на краю пропасти из-за собственных чувств и борются с искушением пустить под откос жизни свои и своих близких...



Качество: BDRip 720p Сравнение с исходником
Формат: MKV
Видео кодек: H.264
Аудио кодек: AC3
Видео: MPEG-4 AVC, 5009 Кбит/с, 1196x720, 24 кадра/с
Аудио 1: русский, AC3, 192 kbps, 2 ch, 48 kHz [профессиональный многоголосый]
Аудио 2: французский, AC3, 192 kbps, 2 ch, 48 kHz [оригинал]
Субтитры 1: русские
Субтитры 2: английские
Сезар, 1982 год
Номинации (2):
Лучшая актриса (Фанни Ардан)
Лучшая актриса второго плана (Вероник Сильвер)
frame I:840 Avg QP:19.26 size:105896
frame P:26671 Avg QP:20.33 size: 47257
frame B:124178 Avg QP:22.17 size: 21683

Общее
Уникальный идентификатор : 237472363169614281571012497054771994065 (0xB2A78375FFD0970FBAB7487716185DD1)
Полное имя : D:VideoСоседка.1981.BDRip.720p.mkv
Формат : Matroska
Версия формата : Version 4 / Version 2
Размер файла : 4,05 Гбайт
Продолжительность : 1 ч. 45 м.
Общий поток : 5502 Кбит/сек
Название фильма : BDRip -- STarankov
Дата кодирования : UTC 2015-05-11 03:34:15
Программа кодирования : mkvmerge v7.8.0 ('River Man') 64bit built on Mar 27 2015 16:31:37
Библиотека кодирования : libebml v1.3.1 + libmatroska v1.4.2
_STATISTICS_WRITING_APP : mkvmerge v7.8.0 ('River Man') 64bit built on Mar 27 2015 16:31:37
_STATISTICS_WRITING_DATE_UTC : 2015-05-11 03:34:15
_STATISTICS_TAGS : BPS DURATION NUMBER_OF_FRAMES NUMBER_OF_BYTES
DURATION : 01:43:20.749000000
NUMBER_OF_FRAMES : 1233
NUMBER_OF_BYTES : 32852

Видео
Идентификатор : 1
Формат : AVC
Формат/Информация : Advanced Video Codec
Профиль формата : High@L4.1
Параметр CABAC формата : Да
Параметр ReFrames формата : 9 кадров
Идентификатор кодека : V_MPEG4/ISO/AVC
Продолжительность : 1 ч. 45 м.
Битрейт : 5009 Кбит/сек
Ширина : 1196 пикселей
Высота : 720 пикселей
Соотношение сторон : 1,661
Режим частоты кадров : Постоянный
Частота кадров : 24,000 кадра/сек
Цветовое пространство : YUV
Субдискретизация насыщенности : 4:2:0
Битовая глубина : 8 бит
Тип развёртки : Прогрессивная
Бит/(Пиксели*Кадры) : 0.242
Размер потока : 3,69 Гбайт (91%)
Библиотека кодирования : x264 core 146 r2538 121396c
Настройки программы : cabac=1 / ref=9 / deblock=1:-1:-1 / analyse=0x3:0x113 / me=umh / subme=10 / psy=1 / psy_rd=1.00:0.15 / mixed_ref=1 / me_range=32 / chroma_me=1 / trellis=2 / 8x8dct=1 / cqm=0 / deadzone=21,11 / fast_pskip=1 / chroma_qp_offset=-3 / threads=6 / lookahead_threads=1 / sliced_threads=0 / nr=0 / decimate=1 / interlaced=0 / bluray_compat=0 / constrained_intra=0 / bframes=8 / b_pyramid=2 / b_adapt=2 / b_bias=0 / direct=1 / weightb=1 / open_gop=0 / weightp=2 / keyint=230 / keyint_min=23 / scenecut=40 / intra_refresh=0 / rc_lookahead=40 / rc=crf / mbtree=0 / crf=20.0 / qcomp=0.60 / qpmin=0 / qpmax=69 / qpstep=4 / vbv_maxrate=40000 / vbv_bufsize=50000 / crf_max=0.0 / nal_hrd=none / filler=0 / ip_ratio=1.40 / pb_ratio=1.30 / aq=1:1.00
Язык : French
Default : Да
Forced : Нет
DURATION : 01:45:20.375000000
NUMBER_OF_FRAMES : 151689
NUMBER_OF_BYTES : 4041834466
_STATISTICS_WRITING_APP : mkvmerge v7.8.0 ('River Man') 64bit built on Mar 27 2015 16:31:37
_STATISTICS_WRITING_DATE_UTC : 2015-05-11 03:34:15
_STATISTICS_TAGS : BPS DURATION NUMBER_OF_FRAMES NUMBER_OF_BYTES

Аудио #1
Идентификатор : 2
Формат : AC-3
Формат/Информация : Audio Coding 3
Расширение режима : CM (complete main)
Параметр Endianness формата : Big
Идентификатор кодека : A_AC3
Продолжительность : 1 ч. 45 м.
Вид битрейта : Постоянный
Битрейт : 192 Кбит/сек
Каналы : 2 канала
Расположение каналов : Front: L R
Частота : 48,0 КГц
Битовая глубина : 16 бит
Метод сжатия : С потерями
Размер потока : 145 Мбайт (3%)
Заголовок : MVO
Язык : Russian
Default : Да
Forced : Нет

Аудио #2
Идентификатор : 3
Формат : AC-3
Формат/Информация : Audio Coding 3
Расширение режима : CM (complete main)
Параметр Endianness формата : Big
Идентификатор кодека : A_AC3
Продолжительность : 1 ч. 45 м.
Вид битрейта : Постоянный
Битрейт : 192 Кбит/сек
Каналы : 2 канала
Расположение каналов : Front: L R
Частота : 48,0 КГц
Битовая глубина : 16 бит
Метод сжатия : С потерями
Размер потока : 145 Мбайт (3%)
Заголовок : Original
Язык : French
Default : Нет
Forced : Нет

Текст #1
Идентификатор : 4
Формат : UTF-8
Идентификатор кодека : S_TEXT/UTF8
Идентификатор кодека/Информация : UTF-8 Plain Text
Заголовок : русский
Язык : Russian
Default : Нет
Forced : Нет

Текст #2
Идентификатор : 5
Формат : UTF-8
Идентификатор кодека : S_TEXT/UTF8
Идентификатор кодека/Информация : UTF-8 Plain Text
Заголовок : английский
Язык : English
Default : Нет
Forced : Нет
pb.wtf



Скачать Соседка через торрент http://i47.fastpic.ru/big/2015/0510/c6/9130879f7d6d656add5ac7a9bde748c6.jpg Скачать фильм Соседка через торрент бесплантно в хорошем качестве Описание: Бернар Кудре - образцовый семьянин, проживающий в пригороде с любящей красавицей-женой и малолетним сынишкой. Их упорядоченная ... 10 10 3
Info! Золотая раздача, скачанное не засчитывается.
Торрент: Зарегистрирован [2015-05-11 06:26] · скачан: 18 раз
Статус: √ проверено
Размер: 4.05 GB
Как cкачать? Как скачать Соседка через торрент | qTorrent

28-11-2019 20:33  

Отключить всю рекламу на сайте

    Дорогой пользователь! Огромная просьба, поблагодарите релизера, оцените раздачу и оставьте свои комментарий, если Вы скачали Соседка через торрент бесплатно! Внесите свою лепту в развитие PiratBit!
    Комментировать посты могут только пользователи прошедшие не сложную регистрацию
    Показать сообщения:    

    Соседка через торрент
    Скачать бесплатно Соседка
    Соседка скачать торрент
    Соседка смотреть онлайн
    Cкачать фильм Соседка бесплатно
    Соседка скачать торрент в хорошем качестве
    Соседка смотреть онлайн бесплатно в хорошем качестве


    Вы не можете начинать темы
    Вы не можете отвечать на сообщения
    Вы не можете редактировать свои сообщения
    Вы не можете удалять свои сообщения
    Вы не можете голосовать в опросах
    Вы не можете прикреплять файлы к сообщениям
    Вы можете скачивать файлы