2 сезон

iTunes

MVO

1

2 сезон

iTunes

iTunes

1 сезон

RePack

30

Новинка

ВАЖНО

ИГРА 18+

pack

RePack

MK11
pack

Легкие деньги

RePack

jed

RePack

fifa19

RePack

RDR2

RePack

NEED FOR SPEED™ PAYBACK

4 сезон

9 сезон

Бесстыжие 9 сезон

Все сериалы

все сериалы на PB.wtf

RePack

FAR CRY 5

Anonymous, доброе утро, мы не успеваем собрать деньги на оплату серверов за декабрь и январь, помогите нам пожалуйста в это трудное время. В качестве благодарности мы отключим Вам всю рекламу на сайте (укажите свой ник в строку Ваше имя)!

×
  
Magnet ссылка

Тайна Рагнарока / Gåten Ragnarok (Миккель Бренне Саннемусе) [2013 г., HDRip, Приключения, фэнтези, боевик Профессиональный многоголосый - СТС] pb.wtf

Тайна Рагнарока через торрент pb.wtf

Размер: 1.45 GB | Добавлен: 5 лет 8 мес. назад | Торрент скачан:1430 раз
Скачать  

11-05-2015 09:20 Тайна Рагнарока Скачать торрент  

Тайна Рагнарока / Gåten RagnarokГод выпуска: 2013
Страна: Норвегия
Выпущено: Fantefilm, Film i Väst, Ghost VFX
Продолжительность: 01:41:07
Жанр: Приключения, фэнтези, боевик
Перевод: Профессиональный многоголосый - СТС
Субтитры: Отсутствуют

Режиссер: Миккель Бренне Саннемусе

В ролях: Пол Сверре Хаген, Николай Клеве Брок, Cофия Хелин, Мария Аннетт Таннерёд Берглю, Юлиан Подольски, Бьёрн Сундквист

Описание: Археолог Сигерд Свендсен уже много лет одержим историей судна викингов Осберг. Единственная надпись, найденная на этом корабле написана на языке рун и гласит: «человек знает мало». Сигерд уверен, что судно Осберг скрывает ответ на тайну о Рагнароке — конце дней в норвежской мифологии. Когда его друг Аллан находит подобные руны на камне с севера Норвегии, Сигерд убеждается, что руны — это карта сокровищ. Вместе они отправляются в экспедицию, которая заводит их в «нейтральную зону» между Норвегией и Россией, которая не населена уже многие десятилетия. Здесь Сигерд находит истинное значение рун, которые хранят ужасающую тайну.



Качество: HDRip
Формат: AVI
Видео кодек: XviD
Аудио кодек: AC3
Видео: 720x304, 1324 kbps, 24,000 fps, 0.252 bpp
Аудио#1: Русский / 2 / 48 kHz / 192 kbps / 16 bit
Аудио#2: Норвежский / 6 / 48 kHz / 448 kbps / 16 bit







Общее
Полное имя : D:\uTorrent\Тайна Рагнарока.avi
Формат : AVI
Формат/Информация : Audio Video Interleave
Размер файла : 1,45 Гбайт
Продолжительность : 1 ч. 41 м.
Общий поток : 2056 Кбит/сек
Название фильма : Тайна Рагнарока / Gеten Ragnarok (2013)
Программа кодирования : VirtualDubMod 1.5.10.2 (build 2540/release)
Библиотека кодирования : VirtualDubMod build 2540/release
Правообладатель : miha2154

Видео
Идентификатор : 0
Формат : MPEG-4 Visual
Профиль формата : Advanced Simple@L5
Параметр BVOP формата : 1
Параметр QPel формата : Нет
Параметр GMC формата : Без точки перехода
Параметр матрицы формата : Выборочная
Идентификатор кодека : XVID
Идентификатор кодека/Подсказка : XviD
Продолжительность : 1 ч. 41 м.
Битрейт : 1324 Кбит/сек
Ширина : 720 пикселей
Высота : 304 пикселя
Соотношение сторон : 2,35:1
Частота кадров : 24,000 кадра/сек
Цветовое пространство : YUV
Субдискретизация насыщенности : 4:2:0
Битовая глубина : 8 бит
Тип развёртки : Прогрессивная
Метод сжатия : С потерями
Бит/(Пиксели*Кадры) : 0.252
Размер потока : 958 Мбайт (64%)
Библиотека кодирования : XviD 65

Аудио #1
Идентификатор : 1
Формат : AC-3
Формат/Информация : Audio Coding 3
Расширение режима : CM (complete main)
Параметр Endianness формата : Big
Идентификатор кодека : 2000
Продолжительность : 1 ч. 41 м.
Вид битрейта : Постоянный
Битрейт : 192 Кбит/сек
Каналы : 2 канала
Расположение каналов : Front: L R
Частота : 48,0 КГц
Битовая глубина : 16 бит
Метод сжатия : С потерями
Размер потока : 139 Мбайт (9%)
Выравнивание : Разделение по промежуткам
Заголовок : Профессиональный (многоголосый закадровый) СТС

Аудио #2
Идентификатор : 2
Формат : AC-3
Формат/Информация : Audio Coding 3
Расширение режима : CM (complete main)
Параметр Endianness формата : Big
Идентификатор кодека : 2000
Продолжительность : 1 ч. 41 м.
Вид битрейта : Постоянный
Битрейт : 448 Кбит/сек
Каналы : 6 каналов
Расположение каналов : Front: L C R, Side: L R, LFE
Частота : 48,0 КГц
Битовая глубина : 16 бит
Метод сжатия : С потерями
Размер потока : 324 Мбайт (22%)
Выравнивание : Разделение по промежуткам
Заголовок : Норвежский

На вырезанные на СТС места вставлена озвучка Михаила Чадова по переводу С.Белькова pb.wtf



Скачать Тайна Рагнарока через торрент http://3.firepic.org/3/images/2014-02/26/ft1t2f0fatyj.jpg Скачать фильм Тайна Рагнарока через торрент бесплантно в хорошем качестве Описание: Археолог Сигерд Свендсен уже много лет одержим историей судна викингов Осберг. Единственная надпись, найденная на этом корабле ... 9.4 10 49
Info! Золотая раздача, скачанное не засчитывается.
Торрент: Зарегистрирован [2015-05-11 09:20] · скачан: 1 430 раз
Статус: √ проверено
Размер: 1.45 GB
Как cкачать? Как скачать Тайна Рагнарока через торрент | UTorrent



Последний раз редактировалось: _Fenixx_ни мужик ни баба (2015-05-11 11:50), всего редактировалось 1 раз

28-11-2019 20:33  

Отключить всю рекламу на сайте

11-05-2015 11:32 Тайна Рагнарока Скачать торрент  

а жанр приключение - фантастика ?pb.wtf



11-05-2015 12:01 Тайна Рагнарока Скачать торрент  

неплохой фильм, советую глянутьpb.wtf



    Дорогой пользователь! Огромная просьба, поблагодарите релизера, оцените раздачу и оставьте свои комментарий, если Вы скачали Тайна Рагнарока через торрент бесплатно! Внесите свою лепту в развитие PiratBit!
    Комментировать посты могут только пользователи прошедшие не сложную регистрацию
    Показать сообщения:    

    Тайна Рагнарока через торрент
    Скачать бесплатно Тайна Рагнарока
    Тайна Рагнарока скачать торрент
    Тайна Рагнарока смотреть онлайн
    Cкачать фильм Тайна Рагнарока бесплатно
    Тайна Рагнарока скачать торрент в хорошем качестве
    Тайна Рагнарока смотреть онлайн бесплатно в хорошем качестве


    Вы не можете начинать темы
    Вы не можете отвечать на сообщения
    Вы не можете редактировать свои сообщения
    Вы не можете удалять свои сообщения
    Вы не можете голосовать в опросах
    Вы не можете прикреплять файлы к сообщениям
    Вы можете скачивать файлы