Ссылка на приватное зеркало нашего сайта всего за 1$. Внимание количество ограничено!!!

2 сезон

iTunes

1 сезон

1

2 сезон

2 сезон

iTunes

1 сезон

RePack

30

Новинка

ВАЖНО

ИГРА 18+

pack

RePack

MK11
pack

Забери бонус

RePack

jed

!!Акция!!

Alien_Rage

RePack

fifa19

RePack

Assassins Creed: Odyssey

RePack

NEED FOR SPEED™ PAYBACK

4 сезон

9 сезон

Бесстыжие 9 сезон

Все сериалы

все сериалы на PB.wtf

RePack

FAR CRY 5
  

Ужасы по дешевке / Страшные сказки / Penny Dreadful / Сезон: 2 / Серии 1-4 из 10 (Хуан Антонио Байона) [2015, США, Драма, приключения, HDTVRip, MVO] [Amedia] pb.wtf

Ужасы по дешевке через торрент pb.wtf

Размер: 2.96 GB | Добавлен: 5 лет 5 мес. назад | Торрент скачан:51 раз
Скачать  

11-05-2015 11:01 Ужасы по дешевке Скачать торрент  



◈ Страшные Сказки ◈
Информация о фильме:

Год выхода: 2015

Жанр: ужасы, драма

Название: Страшные сказки

Оригинальное название: Penny Dreadful

Режиссер: Хуан Антонио Байона, Коки Гидройч, Джеймс Хоуз

В ролях: Тимоти Далтон, Ева Грин, Джош Хартнетт, Рори Киннер, Хелен МакКрори, Билли Пайпер, Гарри Тредэвэй, Рив Карни, Алан Армстронг, Рик Берн



Описание фильма:

Сериал возвращает нас ко всеми любимым героям, монстрам и злодеям. В викторианском Лондоне, где происходит действие сериала, никогда не было спокойно и безопасно. Особенно теперь, когда литературные персонажи ожили и наводят ужас на город. Неминуема встреча с вечно молодым Дорианом Греем, героем одноименного романа Оскара Уайльда, доктором Франкенштейном и его зомби-монстром, хладнокровным графом Дракулой, охотником на вампиров и оборотней Ван Хельсингом и множеством других уникальных персонажей.



Страна: США, Ирландия, Великобритания

Продолжительность: ~ 00:55:00 серия

Перевод: профессиональный (многоголосый, закадровый) - Amedia




Информация о файле:

✦ Качество: HDTVRip

✦ Формат: AVI

✦ Видео кодек: XviD

✦ Аудио кодек: AC3

✦ Видео: 720x400, 1438 kb/s, 23,976 fps

✦ Аудио Rus: AC3, 48.0 KHz, 2 ch, 192 kbps

✦ Аудио Eng: AC3, 48.0 KHz, 2 ch, 192 kbps

✦ Субтитры: Русские, английские

Когда раздача ведётся путём добавления новых серий, при каждом добавлении создётся новый торрент. Чтобы начать докачку новой серии, пользователям необходимо сделать следующее:

(1) остановить скачивание,

(2) удалить старый торрент у себя из клиента (старые серии удалять не надо),

(3) скачать новый торрент и запустить его у себя в клиенте вместо старого, при этом указать клиенту путь в старую папку, куда и должно происходить скачивание новых серий.

Ваш клиент при этом должен произвести хеширование (проверку) старой папки (если не производит сам - помогите ему сделать это), и будет докачивать только те серии, которых у вас ещё нет. Старые серии при этом не удаляются, а продолжают раздаваться!

Eсли вы уже удалили старые серии, то предотвратить повторную закачку старых серий можно, отжав галочку в соответсвующих местах при запуске нового торрента. По возможности, желательно не удалять старые серии как можно дольше, чтобы релизёр не столько продолжал раздавать старые серии, а смог сконцентрироваться на новых.
Общее
Полное имя : D:\uTorrent\Penny Dreadful (S02) Amedia\Penny.Dreadful.S02E01.XviD.Amedia.[qqss44].avi
Формат : AVI
Формат/Информация : Audio Video Interleave
Размер файла : 750 Мбайт
Продолжительность : 54 м.
Общий поток : 1908 Кбит/сек
Программа кодирования : VirtualDubMod 1.5.10.3 | www.virtualdub-fr.org || (build 2550/release)
Библиотека кодирования : VirtualDubMod build 2550/release

Видео
Идентификатор : 0
Формат : MPEG-4 Visual
Профиль формата : Advanced Simple@L5
Параметр BVOP формата : 2
Параметр QPel формата : Нет
Параметр GMC формата : Без точки перехода
Параметр матрицы формата : Default (MPEG)
Идентификатор кодека : XVID
Идентификатор кодека/Подсказка : XviD
Продолжительность : 54 м.
Битрейт : 1438 Кбит/сек
Ширина : 720 пикселей
Высота : 400 пикселей
Соотношение сторон : 16:9
Частота кадров : 23,976 кадра/сек
Цветовое пространство : YUV
Субдискретизация насыщенности : 4:2:0
Битовая глубина : 8 бит
Тип развёртки : Прогрессивная
Метод сжатия : С потерями
Бит/(Пиксели*Кадры) : 0.208
Размер потока : 565 Мбайт (75%)
Библиотека кодирования : XviD 73

Аудио #1
Идентификатор : 1
Формат : AC-3
Формат/Информация : Audio Coding 3
Расширение режима : CM (complete main)
Параметр Endianness формата : Big
Идентификатор кодека : 2000
Продолжительность : 54 м.
Вид битрейта : Постоянный
Битрейт : 192 Кбит/сек
Каналы : 2 канала
Расположение каналов : Front: L R
Частота : 48,0 КГц
Битовая глубина : 16 бит
Метод сжатия : С потерями
Размер потока : 75,5 Мбайт (10%)
Выравнивание : Разделение по промежуткам

Аудио #2
Идентификатор : 2
Формат : AC-3
Формат/Информация : Audio Coding 3
Расширение режима : CM (complete main)
Параметр Endianness формата : Big
Идентификатор кодека : 2000
Продолжительность : 54 м.
Вид битрейта : Постоянный
Битрейт : 192 Кбит/сек
Каналы : 2 канала
Расположение каналов : Front: L R
Частота : 48,0 КГц
Битовая глубина : 16 бит
Метод сжатия : С потерями
Размер потока : 75,5 Мбайт (10%)
Выравнивание : Разделение по промежуткам


рип, синхронизация звука и субтитров • qqss44

субтитры - Амедиа

Переведено и озвучено: Greb And Creative Group Company по заказу Amedia

Роли озвучивали: Марианна Шульц, Елена Греб, Евгений Вальц, Иван Калинин, Сергей Смирнов, Денис Некрасов

Режиссер озвучания: Елена Греб

Звукорежиссеры: Денис Малый, Жанна Денисова

Перевод: Ольга Дмитриева

Редактор: Ксана Бойко
pb.wtf



Скачать Ужасы по дешевке через торрент http://i55.fastpic.ru/big/2014/0430/ba/03c2673ebc0a833fbdaec4e07d18adba.png Скачать фильм Ужасы по дешевке через торрент бесплантно в хорошем качестве Описание фильма:Сериал возвращает нас ко всеми любимым героям, монстрам и злодеям. В викторианском Лондоне, где происходит действие ... 9.8 10 8
Торрент: Зарегистрирован [2015-05-29 19:33] · скачан: 51 раз
Статус: √ проверено
Размер: 2.96 GB
Как cкачать? Как скачать Ужасы по дешевке через торрент | qTorrent



Последний раз редактировалось: _Fenixx_ни мужик ни баба (2015-05-29 19:33), всего редактировалось 1 раз

28-11-2019 20:33  

Отключить всю рекламу на сайте

12-05-2015 10:39 Ужасы по дешевке Скачать торрент  

Грошовые ужасыpb.wtf



22-05-2015 08:04 Ужасы по дешевке Скачать торрент  

А 3-ей серии в Amedia еще нет?pb.wtf



22-05-2015 14:55 Ужасы по дешевке Скачать торрент  

Нахрена ты вообще создаешь раздачи,если не доводишь их до конца?)))
Это уже сотая раздача,где пару серий,а дальше ни чего не будет :sensored:pb.wtf



29-05-2015 19:42 Ужасы по дешевке Скачать торрент  

˜”°•...•°”˜ писал(а):

Нахрена ты вообще создаешь раздачи,если не доводишь их до конца?)))
Это уже сотая раздача,где пару серий,а дальше ни чего не будет :sensored:

Уважаемый я все свои раздачи довел до конца пролезь по моим раздачам и посмотриpb.wtf



02-06-2015 10:21 Ужасы по дешевке Скачать торрент  

_Fenixx_ писал(а):

˜”°•...•°”˜ писал(а):

Нахрена ты вообще создаешь раздачи,если не доводишь их до конца?)))
Это уже сотая раздача,где пару серий,а дальше ни чего не будет :sensored:

Уважаемый я все свои раздачи довел до конца пролезь по моим раздачам и посмотри

Ну тогда с опозданием в неделю,или даже месяц,когда все уже качнули в другом месте)))pb.wtf



    Дорогой пользователь! Огромная просьба, поблагодарите релизера, оцените раздачу и оставьте свои комментарий, если Вы скачали Ужасы по дешевке через торрент бесплатно! Внесите свою лепту в развитие PiratBit!
    Комментировать посты могут только пользователи прошедшие не сложную регистрацию
    Показать сообщения:    

    Ужасы по дешевке через торрент
    Скачать бесплатно Ужасы по дешевке
    Ужасы по дешевке скачать торрент
    Ужасы по дешевке смотреть онлайн
    Cкачать фильм Ужасы по дешевке бесплатно
    Ужасы по дешевке скачать торрент в хорошем качестве
    Ужасы по дешевке смотреть онлайн бесплатно в хорошем качестве


    Вы не можете начинать темы
    Вы не можете отвечать на сообщения
    Вы не можете редактировать свои сообщения
    Вы не можете удалять свои сообщения
    Вы не можете голосовать в опросах
    Вы не можете прикреплять файлы к сообщениям
    Вы можете скачивать файлы