Ссылка на приватное зеркало нашего сайта всего за 1$. Внимание количество ограничено!!!

2 сезон

iTunes

1 сезон

1

iTunes

iTunes

iTunes

1 сезон

RePack

30

ИГРА 18+

pack

ВАЖНО

!!Акция!!

Alien_RageХит недели

RePack

MK11
pack

Забери бонус

RePack

jed

!!Акция!!

Alien_Rage

RePack

fifa19

RePack

Assassins Creed: Odyssey

RePack

NEED FOR SPEED™ PAYBACK

4 сезон

9 сезон

Бесстыжие 9 сезон

Все сериалы

все сериалы на PB.wtf

RePack

FAR CRY 5
  

Леон / Léon (Люк Бессон / Luc Besson) [1994, триллер, драма, криминал, BDRip 1080p] MVO (R5) + 2xAVO (Пучков, Рукин) + Original + Sub (Rus, Eng) pb.wtf

Леон через торрент pb.wtf

Размер: 15.83 GB | Добавлен: 5 лет 5 мес. назад | Торрент скачан:33 раза
Скачать  

11-05-2015 22:33 Леон Скачать торрент  

Леон / Léon
«Вы не можете остановить того, кого не видно»



Год выпуска: 1994
Страна: Франция
Жанр: триллер, драма, криминал
Продолжительность: 01:49:27
Перевод: Профессиональный (многоголосый, закадровый)
Субтитры: Русские (Full), Английские (Full)



Режиссер:
  • Люк Бессон / Luc Besson
В ролях:
  • Жан Рено, Гари Олдман, Натали Портман, Дэнни Айелло, Майкл Бадалукко, Эллен Грин, Элизабет Реген, Карл Дж. Матусович, Питер Эппел, Фрэнк Сенгер, Уилли Уан Блад, Дон Крич
Описание: Профессиональный убийца Леон, не знающий пощады и жалости, знакомится со своей очаровательной соседкой Матильдой, семью которой расстреливают полицейские, замешанные в торговле наркотиками. Благодаря этому знакомству он впервые испытывает чувство любви, но...



Качество: BDRip 1080p
Формат: MKV
Видео кодек: AVC
Аудио кодек: AC3 / DTS
Видео: 1920x816 (2.35:1), 23,976 fps, 15315 kbps, 0,408 bpp
Аудио №1: русский, 48 kHz, AC3, 5.1 ch, 448 kbps | Многоголосый закадровый, R5
Аудио №2: русский, 48 kHz, DTS, 5.1 ch, 1510 kbps | Одноголосый закадровый, Д.Пучков
Аудио №3: русский, 48 kHz, DTS, 5.1 ch, 1510 kbps | Одноголосый закадровый, В.Рукин
Аудио №4: английский, 48 kHz, DTS, 5.1 ch, 1510 kbps


Код:

General
Unique ID                                : 210814072802093031867018703480435608689 (0x9E995044DD21E2AFA4C6500D8D798C71)
Complete name                            : D:\Леон (1994) 1080p BDRip.mkv
Format                                   : Matroska
Format version                           : Version 4 / Version 2
File size                                : 15.8 GiB
Duration                                 : 1h 49mn
Overall bit rate                         : 20.7 Mbps
Encoded date                             : UTC 2015-04-26 12:53:41
Writing application                      : mkvmerge v6.9.1 ('Blue Panther') 32bit built on Apr 18 2014 18:15:44
Writing library                          : libebml v1.3.0 + libmatroska v1.4.1
Attachment                               : Yes

Video
ID                                       : 1
Format                                   : AVC
Format/Info                              : Advanced Video Codec
Format profile                           : High@L4.1
Format settings, CABAC                   : Yes
Format settings, ReFrames                : 5 frames
Codec ID                                 : V_MPEG4/ISO/AVC
Duration                                 : 1h 49mn
Bit rate                                 : 15.3 Mbps
Width                                    : 1 920 pixels
Height                                   : 816 pixels
Display aspect ratio                     : 2.35:1
Frame rate                               : 23.976 fps
Color space                              : YUV
Chroma subsampling                       : 4:2:0
Bit depth                                : 8 bits
Scan type                                : Progressive
Bits/(Pixel*Frame)                       : 0.408
Stream size                              : 11.7 GiB (74%)
Title                                    : SbR
Writing library                          : x264 core 140 r2377+40 929f149 tMod [8-bit@4:2:0 X86_64]
Encoding settings                        : cabac=1 / ref=5 / deblock=1:-2:-2 / analyse=0x3:0x113 / me=umh / subme=11 / psy=1 / fade_compensate=0.00 / psy_rd=1.00:0.00 / mixed_ref=1 / me_range=48 / chroma_me=1 / trellis=2 / 8x8dct=1 / cqm=0 / deadzone=21,11 / fast_pskip=1 / chroma_qp_offset=-2 / threads=12 / lookahead_threads=3 / sliced_threads=0 / nr=0 / decimate=1 / interlaced=0 / bluray_compat=0 / constrained_intra=0 / fgo=0 / bframes=11 / b_pyramid=2 / b_adapt=2 / b_bias=0 / direct=3 / weightb=1 / open_gop=0 / weightp=2 / keyint=250 / keyint_min=23 / scenecut=40 / intra_refresh=0 / rc_lookahead=60 / rc=crf / mbtree=0 / crf=18.0000 / qcomp=0.60 / qpmin=0:0:0 / qpmax=69:69:69 / qpstep=4 / vbv_maxrate=62500 / vbv_bufsize=78125 / crf_max=0.0 / nal_hrd=none / filler=0 / ip_ratio=1.40 / pb_ratio=1.30 / aq=1:1.00 / aq-sensitivity=10.00 / aq-factor=1.00:1.00:1.00 / aq2=0 / aq3=0
Language                                 : French
Default                                  : Yes
Forced                                   : No
Color primaries                          : BT.709-5, BT.1361, IEC 61966-2-4, SMPTE RP177
Transfer characteristics                 : BT.709-5, BT.1361
Matrix coefficients                      : BT.709-5, BT.1361, IEC 61966-2-4 709, SMPTE RP177

Audio #1
ID                                       : 2
Format                                   : AC-3
Format/Info                              : Audio Coding 3
Mode extension                           : CM (complete main)
Codec ID                                 : A_AC3
Duration                                 : 1h 49mn
Bit rate mode                            : Constant
Bit rate                                 : 448 Kbps
Channel(s)                               : 6 channels
Channel positions                        : Front: L C R, Side: L R, LFE
Sampling rate                            : 48.0 KHz
Bit depth                                : 16 bits
Compression mode                         : Lossy
Stream size                              : 351 MiB (2%)
Title                                    : Многоголосый закадровый, R5
Language                                 : Russian
Default                                  : Yes
Forced                                   : No

Audio #2
ID                                       : 3
Format                                   : DTS
Format/Info                              : Digital Theater Systems
Codec ID                                 : A_DTS
Duration                                 : 1h 49mn
Bit rate mode                            : Constant
Bit rate                                 : 1 510 Kbps
Channel(s)                               : 6 channels
Channel positions                        : Front: L C R, Side: L R, LFE
Sampling rate                            : 48.0 KHz
Bit depth                                : 24 bits
Compression mode                         : Lossy
Stream size                              : 1.15 GiB (7%)
Title                                    : Одноголосый закадровый, Д.Пучков
Language                                 : Russian
Default                                  : No
Forced                                   : No

Audio #3
ID                                       : 4
Format                                   : DTS
Format/Info                              : Digital Theater Systems
Codec ID                                 : A_DTS
Duration                                 : 1h 49mn
Bit rate mode                            : Constant
Bit rate                                 : 1 510 Kbps
Channel(s)                               : 6 channels
Channel positions                        : Front: L C R, Side: L R, LFE
Sampling rate                            : 48.0 KHz
Bit depth                                : 24 bits
Compression mode                         : Lossy
Stream size                              : 1.15 GiB (7%)
Title                                    : Одноголосый закадровый, В.Рукин
Language                                 : Russian
Default                                  : No
Forced                                   : No

Audio #4
ID                                       : 5
Format                                   : DTS
Format/Info                              : Digital Theater Systems
Codec ID                                 : A_DTS
Duration                                 : 1h 49mn
Bit rate mode                            : Constant
Bit rate                                 : 1 510 Kbps
Channel(s)                               : 6 channels
Channel positions                        : Front: L C R, Side: L R, LFE
Sampling rate                            : 48.0 KHz
Bit depth                                : 24 bits
Compression mode                         : Lossy
Stream size                              : 1.15 GiB (7%)
Title                                    : Оригинал
Language                                 : English
Default                                  : No
Forced                                   : No

Text #1
ID                                       : 6
Format                                   : UTF-8
Codec ID                                 : S_TEXT/UTF8
Codec ID/Info                            : UTF-8 Plain Text
Title                                    : Full
Language                                 : Russian
Default                                  : No
Forced                                   : No

Text #2
ID                                       : 7
Format                                   : UTF-8
Codec ID                                 : S_TEXT/UTF8
Codec ID/Info                            : UTF-8 Plain Text
Title                                    : Full
Language                                 : English
Default                                  : No
Forced                                   : No

Menu
00:00:00.000                             : en:Start
00:10:00.766                             : en:Leon & Mathilda
00:17:00.978                             : en:Leon's Apartment
00:24:18.456                             : en:Morning
00:30:14.354                             : en:Before the Storm
00:33:54.282                             : en:Search & Destroy
00:42:40.349                             : en:"Please Open the Door"
00:47:46.238                             : en:Getting Better Acquainted
00:55:07.470                             : en:Training Begins
01:03:30.806                             : en:Hotel National
01:08:17.510                             : en:Room 410
01:11:07.304                             : en:Rifle Practice
01:19:34.060                             : en:Training Continues
01:25:08.019                             : en:Water Fight
01:30:40.309                             : en:Back to Work
01:38:32.573                             : en:The Receptionist

Бюджет фильма: FRF 115 000 000
Премьера (мир): 14 сентября 1994
Релиз на Blu-Ray: 10 ноября 2010,
«Кармен Видео»,
...

Релиз на DVD: 29 марта 2007,
«CP-Digital»,
...
Данный релиз идеален для пополнения домашней коллекции BDRip'ов.
В релиз вшита русская обложка размером 520х600 пикселей (аналогичные размеры у всех обложек для данной категории), что позволяет предать визуальную красоту Ваших фильмов.
Так же релиз максимально наполнен аудио дорожками в высоком качестве и субтитрами в формате srt.
Раздача обновляемая! При выходе других авторских переводов, релиз будет обновлен!
Итак, посмотрим на примере, как будет выглядеть Ваша коллекция: скриншот  
К сожалению, далеко не все, встроенные в телевизор медиаплееры, умеют воспроизводить звук в формате "DTS".
Выходов несколько: либо скачать другую раздачу, в которой звук будет в формате "АС3", либо перекодировать из "DTS" в "АС3".
Так же можно воспроизвести фильм с Вашего персонального компьютера/ноутбука, подключенного к телевизору через провод HDMI.
Фильмы выпускаются для кинотеатров, с пропорциями 2.35:1. И в таком же виде обычно издаются на дисках.
Монитор 16:9 имеет пропорции 1.77:1 поэтому более широкоформатное кино будет отображаться с черными полосами.
Надо это просто принять, ведь так снимают многие кинокартины.
Но некоторые фильмы могут быть и на весь экран. Особенно сериалы.
В рипах обычно обрезают черные полосы, и получают разрешение 1920х800, где приблизительно 280 пикселей занимали, повторюсь, черные полосы на экране.
Пример кадра "на весь экран": скриншот  
Пример кадра "не на весь экран": скриншот  
pb.wtf



Скачать Леон через торрент http://i69.fastpic.ru/big/2015/0516/f1/676c08fa78c6d4e17acaf3740a2f32f1.png Скачать фильм Леон через торрент бесплантно в хорошем качестве Описание: Профессиональный убийца Леон, не знающий пощады и жалости, знакомится со своей очаровательной соседкой Матильдой, семью которой ... 10 10 7
Info! Золотая раздача, скачанное не засчитывается.
Торрент: Зарегистрирован [2015-05-11 22:35] · скачан: 33 раз
Статус: √ проверено
Размер: 15.83 GB
Как cкачать? Как скачать Леон через торрент | qTorrent

% Раздел Тема Автор DL S | L
Фильмы [HD 720p, 1080p] (Хороший звук DUB, MVO) [ 7.08 GB ] Леон / Léon [1994 BDRip 1080p HEVC ] 3xAVO+MVO [International Cut] Мичман37 Скачать
1 | 0
Ultra HD (UHD: 2K, 4K, 8K) — видео сверхвысокой чёткости [ 39.98 GB ] Леон / Профессионал / Léon / The Professional [1994 UHD BDRip 2160p] MVO + 2xAVO [Режиссерская версия] sheker187 Скачать
1 | 0
Ultra HD (UHD: 2K, 4K, 8K) — видео сверхвысокой чёткости [ 56.71 GB ] Леон / Профессионал / Léon / The Professional [1994 UHD BDRemux 2160p] 2xAVO [Пучков Рукин] +MVO [ R5] [Tеатральная версия] bober100 Скачать
1 | 0
Фильмы (DVD фильмы) [ 7.41 GB ] Леон / Léon The Professional [1994 DVD9] shuller Скачать
1 | 0
Фильмы до 2000 г. [ 2.18 GB ] Леон / Léon [1994 HDRip-AVC MVO] [Режиссерская версия] / от R.G. nICE Films Phoenix Скачать
1 | 1
Фильмы 2006-2008 [ 1.37 GB ] Клан Корлеоне / L'ultimo dei Corleonesi [2007 DVDRip MVO] lexxus350 Скачать
1 | 0


Последний раз редактировалось: Seedtank (2015-05-16 09:48), всего редактировалось 3 раз(а)

28-11-2019 20:33  

Отключить всю рекламу на сайте

12-05-2015 08:33 Леон Скачать торрент  

шедевр!pb.wtf



12-05-2015 14:38 Леон Скачать торрент  

_denis_100, согласен. Всем, кто не смотрел - смотреть однозначно!pb.wtf



    Дорогой пользователь! Огромная просьба, поблагодарите релизера, оцените раздачу и оставьте свои комментарий, если Вы скачали Леон через торрент бесплатно! Внесите свою лепту в развитие PiratBit!
    Комментировать посты могут только пользователи прошедшие не сложную регистрацию
    Показать сообщения:    

    Леон через торрент
    Скачать бесплатно Леон
    Леон скачать торрент
    Леон смотреть онлайн
    Cкачать фильм Леон бесплатно
    Леон скачать торрент в хорошем качестве
    Леон смотреть онлайн бесплатно в хорошем качестве


    Вы не можете начинать темы
    Вы не можете отвечать на сообщения
    Вы не можете редактировать свои сообщения
    Вы не можете удалять свои сообщения
    Вы не можете голосовать в опросах
    Вы не можете прикреплять файлы к сообщениям
    Вы можете скачивать файлы