Ссылка на приватное зеркало нашего сайта всего за 1$. Внимание количество ограничено!!!

2 сезон

iTunes

1 сезон

1

iTunes

iTunes

iTunes

1 сезон

RePack

30

ИГРА 18+

pack

ВАЖНО

!!Акция!!

Alien_RageХит недели

RePack

MK11
pack

Забери бонус

RePack

jed

!!Акция!!

Alien_Rage

RePack

fifa19

RePack

Assassins Creed: Odyssey

RePack

NEED FOR SPEED™ PAYBACK

4 сезон

9 сезон

Бесстыжие 9 сезон

Все сериалы

все сериалы на PB.wtf

RePack

FAR CRY 5
  

Начало / Inception (Кристофер Нолан / Christopher Nolan) [2010, фантастика, боевик, триллер, BDRip 1080p] Dub + 2xDVO (Кубик в кубе, BBC Saint-Petersburg) + 2xAVO (Сербин, Гаврилов) + Original + Sub (Rus, Eng) pb.wtf

Начало через торрент pb.wtf

Размер: 20.89 GB | Добавлен: 5 лет 5 мес. назад | Торрент скачан:71 раз
Скачать  

12-05-2015 03:31 Начало Скачать торрент  

Начало / Inception
«Твой разум - место преступления»



Год выпуска: 2010
Страна: США, Великобритания
Жанр: фантастика, боевик, триллер, драма, детектив
Продолжительность: 02:28:07
Перевод: Дублированный [Лицензия]
Субтитры: Русские (Forced + Full + SDH), Английские (Full + SDH)



Режиссер:
  • Кристофер Нолан / Christopher Nolan
В ролях:
  • Леонардо ДиКаприо, Джозеф Гордон-Левитт, Эллен Пейдж, Том Харди, Кен Ватанабе, Киллиан Мёрфи, Марион Котийяр, Дилип Рао, Том Беренджер, Майкл Кейн, Пит Постлетуэйт, Лукас Хаас
Описание: Кобб - талантливый вор, лучший из лучших в опасном искусстве извлечения: он крадет ценные секреты из глубин подсознания во время сна, когда человеческий разум наиболее уязвим. Редкие способности Кобба сделали его ценным игроком в привычном к предательству мире промышленного шпионажа, но они же превратили его в извечного беглеца и лишили всего, что он когда-либо любил.
И вот у Кобба появляется шанс исправить ошибки. Его последнее дело может вернуть все назад, но для этого ему нужно совершить невозможное - инициацию. Вместо идеальной кражи Кобб и его команда спецов должны будут провернуть обратное. Теперь их задача - не украсть идею, а внедрить ее. Если у них получится, это и станет идеальным преступлением.
Но никакое планирование или мастерство не могут подготовить команду к встрече с опасным противником, который, кажется, предугадывает каждый их ход. Врагом, увидеть которого мог бы лишь Кобб.



Качество: BDRip 1080p
Формат: MKV
Видео кодек: AVC
Аудио кодек: AC3 / DTS
Видео: 1920x800 (2.40:1), 23,976 fps, 12000 kbps, 0,326 bpp
Аудио №1: русский, 48 kHz, AC3, 5.1 ch, 640 kbps | Дубляж, Blu-ray CEE
Аудио №2: русский, 48 kHz, DTS, 5.1 ch, 1510 kbps | Двухголосый, закадровый, «Кубик в кубе»
Аудио №3: русский, 48 kHz, DTS, 5.1 ch, 1510 kbps | Двухголосый, закадровый, BBC Saint-Petersburg
Аудио №4: русский, 48 kHz, DTS, 5.1 ch, 1510 kbps | Одноголосый закадровый, Ю.Сербин
Аудио №5: русский, 48 kHz, DTS, 5.1 ch, 1510 kbps | Одноголосый закадровый, А.Гаврилов
Аудио №6: английский, 48 kHz, DTS, 5.1 ch, 1510 kbps


Код:

Общее
Уникальный идентификатор                 : 223652198789438451930570019594810848707 (0xA841D8BFDE0736998FBF43E872DE75C3)
Полное имя                               : D:\Начало (2010) BDRip 1080p.mkv
Формат                                   : Matroska
Версия формата                           : Version 4 / Version 2
Размер файла                             : 20,9 Гбайт
Продолжительность                        : 2 ч. 28 м.
Общий поток                              : 20,2 Мбит/сек
Дата кодирования                         : UTC 2015-04-26 13:13:35
Программа кодирования                    : mkvmerge v6.9.1 ('Blue Panther') 32bit built on Apr 18 2014 18:15:44
Библиотека кодирования                   : libebml v1.3.0 + libmatroska v1.4.1
Attachements                             : cover.jpg

Видео
Идентификатор                            : 1
Формат                                   : AVC
Формат/Информация                        : Advanced Video Codec
Профиль формата                          : High@L4.1
Параметр CABAC формата                   : Да
Параметр ReFrames формата                : 5 кадров
Идентификатор кодека                     : V_MPEG4/ISO/AVC
Продолжительность                        : 2 ч. 28 м.
Битрейт                                  : 12,0 Мбит/сек
Ширина                                   : 1920 пикселей
Высота                                   : 800 пикселей
Соотношение сторон                       : 2,40:1
Режим частоты кадров                     : Постоянный
Частота кадров                           : 23,976 кадра/сек
Цветовое пространство                    : YUV
Субдискретизация насыщенности            : 4:2:0
Битовая глубина                          : 8 бит
Тип развёртки                            : Прогрессивная
Бит/(Пиксели*Кадры)                      : 0.326
Размер потока                            : 12,0 Гбайт (57%)
Библиотека кодирования                   : x264 core 138 r2358 9e941d1
Настройки программы                      : cabac=1 / ref=5 / deblock=1:-3:-3 / analyse=0x3:0x133 / me=tesa / subme=11 / psy=1 / psy_rd=1.00:0.00 / mixed_ref=1 / me_range=24 / chroma_me=1 / trellis=2 / 8x8dct=1 / cqm=0 / deadzone=21,11 / fast_pskip=0 / chroma_qp_offset=-2 / threads=12 / lookahead_threads=2 / sliced_threads=0 / nr=0 / decimate=1 / interlaced=0 / bluray_compat=0 / constrained_intra=0 / bframes=8 / b_pyramid=2 / b_adapt=2 / b_bias=0 / direct=3 / weightb=1 / open_gop=0 / weightp=2 / keyint=250 / keyint_min=23 / scenecut=40 / intra_refresh=0 / rc_lookahead=60 / rc=2pass / mbtree=1 / bitrate=12000 / ratetol=1.0 / qcomp=0.60 / qpmin=0 / qpmax=69 / qpstep=4 / cplxblur=20.0 / qblur=0.5 / ip_ratio=1.40 / aq=1:0.80
Язык                                     : English
Default                                  : Да
Forced                                   : Нет

Аудио #1
Идентификатор                            : 2
Формат                                   : AC-3
Формат/Информация                        : Audio Coding 3
Расширение режима                        : CM (complete main)
Параметр Endianness формата              : Big
Идентификатор кодека                     : A_AC3
Продолжительность                        : 2 ч. 28 м.
Вид битрейта                             : Постоянный
Битрейт                                  : 640 Кбит/сек
Каналы                                   : 6 каналов
Расположение каналов                     : Front: L C R, Side: L R, LFE
Частота                                  : 48,0 КГц
Битовая глубина                          : 16 бит
Метод сжатия                             : С потерями
Размер потока                            : 678 Мбайт (3%)
Заголовок                                : Дубляж, Blu-ray CEE
Язык                                     : Russian
Default                                  : Да
Forced                                   : Нет

Аудио #2
Идентификатор                            : 3
Формат                                   : DTS
Формат/Информация                        : Digital Theater Systems
Режим                                    : 16
Параметр Endianness формата              : Big
Идентификатор кодека                     : A_DTS
Продолжительность                        : 2 ч. 28 м.
Вид битрейта                             : Постоянный
Битрейт                                  : 1509 Кбит/сек
Каналы                                   : 6 каналов
Расположение каналов                     : Front: L C R, Side: L R, LFE
Частота                                  : 48,0 КГц
Битовая глубина                          : 24 бит
Метод сжатия                             : С потерями
Размер потока                            : 1,56 Гбайт (7%)
Заголовок                                : Двухголосый, закадровый, «Кубик в кубе»
Язык                                     : Russian
Default                                  : Нет
Forced                                   : Нет

Аудио #3
Идентификатор                            : 4
Формат                                   : DTS
Формат/Информация                        : Digital Theater Systems
Режим                                    : 16
Параметр Endianness формата              : Big
Идентификатор кодека                     : A_DTS
Продолжительность                        : 2 ч. 28 м.
Вид битрейта                             : Постоянный
Битрейт                                  : 1509 Кбит/сек
Каналы                                   : 6 каналов
Расположение каналов                     : Front: L C R, Side: L R, LFE
Частота                                  : 48,0 КГц
Битовая глубина                          : 24 бит
Метод сжатия                             : С потерями
Размер потока                            : 1,56 Гбайт (7%)
Заголовок                                : Двухголосый, закадровый, BBC Saint-Petersburg
Язык                                     : Russian
Default                                  : Нет
Forced                                   : Нет

Аудио #4
Идентификатор                            : 5
Формат                                   : DTS
Формат/Информация                        : Digital Theater Systems
Режим                                    : 16
Параметр Endianness формата              : Big
Идентификатор кодека                     : A_DTS
Продолжительность                        : 2 ч. 28 м.
Вид битрейта                             : Постоянный
Битрейт                                  : 1509 Кбит/сек
Каналы                                   : 6 каналов
Расположение каналов                     : Front: L C R, Side: L R, LFE
Частота                                  : 48,0 КГц
Битовая глубина                          : 24 бит
Метод сжатия                             : С потерями
Размер потока                            : 1,56 Гбайт (7%)
Заголовок                                : Одноголосый закадровый, Ю.Сербин
Язык                                     : Russian
Default                                  : Нет
Forced                                   : Нет

Аудио #5
Идентификатор                            : 6
Формат                                   : DTS
Формат/Информация                        : Digital Theater Systems
Режим                                    : 16
Параметр Endianness формата              : Big
Идентификатор кодека                     : A_DTS
Продолжительность                        : 2 ч. 28 м.
Вид битрейта                             : Постоянный
Битрейт                                  : 1509 Кбит/сек
Каналы                                   : 6 каналов
Расположение каналов                     : Front: L C R, Side: L R, LFE
Частота                                  : 48,0 КГц
Битовая глубина                          : 24 бит
Метод сжатия                             : С потерями
Размер потока                            : 1,56 Гбайт (7%)
Заголовок                                : Одноголосый закадровый, А.Гаврилов
Язык                                     : Russian
Default                                  : Нет
Forced                                   : Нет

Аудио #6
Идентификатор                            : 7
Формат                                   : DTS
Формат/Информация                        : Digital Theater Systems
Режим                                    : 16
Параметр Endianness формата              : Big
Идентификатор кодека                     : A_DTS
Продолжительность                        : 2 ч. 28 м.
Вид битрейта                             : Постоянный
Битрейт                                  : 1509 Кбит/сек
Каналы                                   : 6 каналов
Расположение каналов                     : Front: L C R, Side: L R, LFE
Частота                                  : 48,0 КГц
Битовая глубина                          : 24 бит
Метод сжатия                             : С потерями
Размер потока                            : 1,56 Гбайт (7%)
Заголовок                                : Оригинал
Язык                                     : English
Default                                  : Нет
Forced                                   : Нет

Текст #1
Идентификатор                            : 8
Формат                                   : UTF-8
Идентификатор кодека                     : S_TEXT/UTF8
Идентификатор кодека/Информация          : UTF-8 Plain Text
Заголовок                                : Forced, Voronine
Язык                                     : Russian
Default                                  : Да
Forced                                   : Нет

Текст #2
Идентификатор                            : 9
Формат                                   : UTF-8
Идентификатор кодека                     : S_TEXT/UTF8
Идентификатор кодека/Информация          : UTF-8 Plain Text
Заголовок                                : Full, Voronine
Язык                                     : Russian
Default                                  : Нет
Forced                                   : Нет

Текст #3
Идентификатор                            : 10
Формат                                   : UTF-8
Идентификатор кодека                     : S_TEXT/UTF8
Идентификатор кодека/Информация          : UTF-8 Plain Text
Заголовок                                : SDH, Voronine
Язык                                     : Russian
Default                                  : Нет
Forced                                   : Нет

Текст #4
Идентификатор                            : 11
Формат                                   : UTF-8
Идентификатор кодека                     : S_TEXT/UTF8
Идентификатор кодека/Информация          : UTF-8 Plain Text
Заголовок                                : Forced
Язык                                     : Russian
Default                                  : Нет
Forced                                   : Нет

Текст #5
Идентификатор                            : 12
Формат                                   : UTF-8
Идентификатор кодека                     : S_TEXT/UTF8
Идентификатор кодека/Информация          : UTF-8 Plain Text
Заголовок                                : Full
Язык                                     : Russian
Default                                  : Нет
Forced                                   : Нет

Текст #6
Идентификатор                            : 13
Формат                                   : UTF-8
Идентификатор кодека                     : S_TEXT/UTF8
Идентификатор кодека/Информация          : UTF-8 Plain Text
Заголовок                                : Full
Язык                                     : English
Default                                  : Нет
Forced                                   : Нет

Текст #7
Идентификатор                            : 14
Формат                                   : UTF-8
Идентификатор кодека                     : S_TEXT/UTF8
Идентификатор кодека/Информация          : UTF-8 Plain Text
Заголовок                                : SDH
Язык                                     : English
Default                                  : Нет
Forced                                   : Нет

Меню
00:00:00.000                             : en:Washed Ashore
00:11:41.742                             : en:Dream On A Train
00:21:37.337                             : en:A Paris Architect
00:31:20.336                             : en:Bilding Within A Dream
00:41:22.229                             : en:Seeking A Chemist
00:51:13.737                             : en:The Plan
01:01:21.552                             : en:Boarding The Plane
01:10:29.683                             : en:Kidnapping
01:22:15.597                             : en:The Safe's Combination
01:31:52.590                             : en:A Deeper Dream
01:40:38.532                             : en:The Ski Dream
01:51:22.175                             : en:Mal's Here
02:00:54.413                             : en:Our Children
02:10:09.051                             : en:The Kick
02:20:55.446                             : en:End Credits

Бюджет фильма: $160 000 000
Премьера (мир): 8 июля 2010
Премьера (РФ): 22 июля 2010,
«Каро-Премьер»

Релиз на Blu-Ray: 7 декабря 2010,
«Юниверсал Пикчерс Рус»,
...

Релиз на DVD: 7 декабря 2010,
«Юниверсал Пикчерс Рус»,
...
Данный релиз идеален для пополнения домашней коллекции BDRip'ов.
В релиз вшита русская обложка размером 520х600 пикселей (аналогичные размеры у всех обложек для данной категории), что позволяет предать визуальную красоту Ваших фильмов.
Так же релиз максимально наполнен аудио дорожками в высоком качестве и субтитрами в формате srt.
Раздача обновляемая! При выходе других авторских переводов, релиз будет обновлен!
Итак, посмотрим на примере, как будет выглядеть Ваша коллекция: скриншот  
К сожалению, далеко не все, встроенные в телевизор медиаплееры, умеют воспроизводить звук в формате "DTS".
Выходов несколько: либо скачать другую раздачу, в которой звук будет в формате "АС3", либо перекодировать из "DTS" в "АС3".
Так же можно воспроизвести фильм с Вашего персонального компьютера/ноутбука, подключенного к телевизору через провод HDMI.
Фильмы выпускаются для кинотеатров, с пропорциями 2.35:1. И в таком же виде обычно издаются на дисках.
Монитор 16:9 имеет пропорции 1.77:1 поэтому более широкоформатное кино будет отображаться с черными полосами.
Надо это просто принять, ведь так снимают многие кинокартины.
Но некоторые фильмы могут быть и на весь экран. Особенно сериалы.
В рипах обычно обрезают черные полосы, и получают разрешение 1920х800, где приблизительно 280 пикселей занимали, повторюсь, черные полосы на экране.
Пример кадра "на весь экран": скриншот  
Пример кадра "не на весь экран": скриншот  
pb.wtf



Скачать Начало через торрент http://i71.fastpic.ru/big/2015/0516/fb/70b8a2b1de11333a57f7f1aeb3d7cffb.png Скачать фильм Начало через торрент бесплантно в хорошем качестве Описание: Кобб - талантливый вор, лучший из лучших в опасном искусстве извлечения: он крадет ценные секреты из глубин подсознания во время ... 9 10 10
Info! Золотая раздача, скачанное не засчитывается.
Торрент: Зарегистрирован [2015-05-12 03:38] · скачан: 71 раз
Статус: √ проверено
Размер: 20.89 GB
Как cкачать? Как скачать Начало через торрент | qTorrent

% Раздел Тема Автор DL S | L
Ultra HD (UHD: 2K, 4K, 8K) — видео сверхвысокой чёткости [ 89.07 GB ] Начало / Inception [2010 UHD BDRemux 2160p] DUB + 2xDVO + 3xAVO sheker187 Скачать
1 | 0
Фильмы [HD 720p, 1080p] (Хороший звук DUB, MVO) [ 5.26 GB ] Начало / Inception [2010 BDRip 1080p HEVC ] Мичман37 Скачать
3 | 1
Ultra HD (UHD: 2K, 4K, 8K) — видео сверхвысокой чёткости [ 43.99 GB ] Начало / Inception [2010 UHD BDRip 2160p] DUB + 2xDVO + 2xAVO sheker187 Скачать
4 | 0
Ultra HD (UHD: 2K, 4K, 8K) — видео сверхвысокой чёткости [ 86.12 GB ] Начало / Inception [2010 UHD Blu-ray 2160p] DUB [ EUR] bober100 Скачать
1 | 0
Ultra HD (UHD: 2K, 4K, 8K) — видео сверхвысокой чёткости [ 86.52 GB ] Начало / Inception [2010 UHD BDRemux 2160p] DUB [rus ukr] + 2xDVO + 2xAVO sheker187 Скачать
1 | 0
Фильмы 2010 [ 2.18 GB ] Начало / Inception [2010 HDRip-AVC] DUB / от R.G. nICE Films Demonessa Скачать
3 | 0
Фильмы (HD 720p, 1080p) (48-60 fps) [ 5.42 GB ] Начало / Inception [2010 BDRip 720p 60fps от еnvy / NNNB] DUB еnvy Скачать
4 | 0

28-11-2019 20:33  

Отключить всю рекламу на сайте

    Дорогой пользователь! Огромная просьба, поблагодарите релизера, оцените раздачу и оставьте свои комментарий, если Вы скачали Начало через торрент бесплатно! Внесите свою лепту в развитие PiratBit!
    Комментировать посты могут только пользователи прошедшие не сложную регистрацию
    Показать сообщения:    

    Начало через торрент
    Скачать бесплатно Начало
    Начало скачать торрент
    Начало смотреть онлайн
    Cкачать фильм Начало бесплатно
    Начало скачать торрент в хорошем качестве
    Начало смотреть онлайн бесплатно в хорошем качестве


    Вы не можете начинать темы
    Вы не можете отвечать на сообщения
    Вы не можете редактировать свои сообщения
    Вы не можете удалять свои сообщения
    Вы не можете голосовать в опросах
    Вы не можете прикреплять файлы к сообщениям
    Вы можете скачивать файлы