Ссылка на приватное зеркало нашего сайта всего за 1$. Внимание количество ограничено!!!

2 сезон

iTunes

1 сезон

1

iTunes

iTunes

iTunes

1 сезон

RePack

30

ИГРА 18+

pack

ВАЖНО

!!Акция!!

Alien_RageХит недели

RePack

MK11
pack

Забери бонус

RePack

jed

!!Акция!!

Alien_Rage

RePack

fifa19

RePack

Assassins Creed: Odyssey

RePack

NEED FOR SPEED™ PAYBACK

4 сезон

9 сезон

Бесстыжие 9 сезон

Все сериалы

все сериалы на PB.wtf

RePack

FAR CRY 5
  

Значит, война / This Means War (МакДжи / McG) [2012, боевик, мелодрама, комедия, BDRip 720p, Extendet Cut] DUB, 2 x AVO + Original + Sub (3xRus,3xEng) pb.wtf

Значит, война через торрент pb.wtf

Раздают: 1 [ 0 KB/s ]
Размер: 8.33 GB | Добавлен: 5 лет 5 мес. назад | Торрент скачан:210 раз
Скачать  

12-05-2015 09:17 Значит, война Скачать торрент  

Значит, война / This Means War
«2 шпиона - 1 проблема»
Расширенная версия / Extendet Cut


Год выпуска: 2012
Страна: США
Жанр: боевик, мелодрама, комедия
Продолжительность: 01:44:00
Перевод: Дублированный, Авторский (одноголосый)
Субтитры: русские (Forced), русские (Full, BD), русские (Full, voronine), английские (Forced), английские (Full), английские (SDH)
Режиссер: МакДжи
В ролях: Том Харди , Крис Пайн , Риз Уизерспун , Тиль Швайгер , Челси Хэндлер , Джон Пол Руттан , Эбигейл Спенсер , Анджела Бассетт , Розмари Харрис , Джордж Тулиатос , Клинт Карлтон , Уоррен Кристи
Описание:
Два секретных агента, которые к тому же и закадычные друзья, влюбляются в одну и ту же женщину, но ни один не желает уступить другому.

R - Лицам до 17 лет обязательно присутствие взрослого
Качество: BDRip 720p (исходник Blu-ray)
Контейнер (Расширение): MKV
Видео кодек: AVC
Аудио кодек: AC3
Видео: 1280x534 (2.40:1), 8864 Кбит/сек, 23,976 кадр/сек, 0,541 Бит/[Пиксели*Кадры]
Аудио №1: русский / AC3 / 5.1 / 48 kHz / 448 kbps / 16 bit |Дублированный|
Аудио №2: русский / AC3 / 5.1 / 48 kHz / 640 kbps / 16 bit |Авторский, Ю. Немахов|
Аудио №3: русский / AC3 / 5.1 / 48 kHz / 640 kbps / 16 bit |Авторский, А. Карповский|
Аудио №4: английский / AC3 / 5.1 / 48 kHz / 640 kbps / 16 bit
Навигация по главам(Чаптеры): естьАвтор рипа: Сообщество:
  • Сэм Уортингтон, Колин Фаррелл, Джастин Тимберлейк и Сет Роген рассматривались на главные роли, но в итоге они достались Крису Пайну и Тому Харди.
  • Превращение главных героев Франклина и Така в настоящих агентов ЦРУ было задачей Пола Мориса, военного советника с большим боевым опытом, который выступил в качестве технического консультанта со стороны ЦРУ при съемках фильма.
  • Герой Пайна охотно рассказывает девушкам, что он - капитан корабля. Это отсылка к роли капитана Кирка в «Звездном пути».
  • На Blu-Ray-издании фильма существуют два альтернативных финала:
    альтернативная концовка №1: В финале после падения машины Лорен выбирает Дака. В финале, к Франклину приходят две стюардессы;
  • Код:

    Format                                   : Matroska
    Format version                           : Version 2
    File size                                : 8.33 GiB
    Duration                                 : 1h 44mn
    Overall bit rate                         : 11.5 Mbps
    Movie name                               : Znachit, vojna.(2012).BDRip.720p.[denis100].Extendet Cut
    Encoded date                             : UTC 2015-05-12 08:44:54
    Writing application                      : mkvmerge v5.8.0 ('No Sleep / Pillow') built on Sep  2 2012 15:37:04
    Writing library                          : libebml v1.2.3 + libmatroska v1.3.0

    Video
    ID                                       : 1
    Format                                   : AVC
    Format/Info                              : Advanced Video Codec
    Format profile                           : High@L4.1
    Format settings, CABAC                   : Yes
    Format settings, ReFrames                : 11 frames
    Codec ID                                 : V_MPEG4/ISO/AVC
    Duration                                 : 1h 44mn
    Bit rate                                 : 8 864 Kbps
    Width                                    : 1 280 pixels
    Height                                   : 534 pixels
    Display aspect ratio                     : 2.40:1
    Frame rate                               : 23.976 fps
    Color space                              : YUV
    Chroma subsampling                       : 4:2:0
    Bit depth                                : 8 bits
    Scan type                                : Progressive
    Bits/(Pixel*Frame)                       : 0.541
    Stream size                              : 6.44 GiB (77%)
    Title                                    : Znachit, vojna.(2012).BDRip.720p.[denis100].Extendet Cut
    Writing library                          : x264 core 146 r2538 121396c
    Encoding settings                        : cabac=1 / ref=11 / deblock=1:-3:-3 / analyse=0x3:0x133 / me=umh / subme=11 / psy=1 / psy_rd=1.00:0.00 / mixed_ref=1 / me_range=48 / chroma_me=1 / trellis=2 / 8x8dct=1 / cqm=0 / deadzone=21,11 / fast_pskip=0 / chroma_qp_offset=-2 / threads=6 / lookahead_threads=1 / sliced_threads=0 / nr=0 / decimate=1 / interlaced=0 / bluray_compat=0 / constrained_intra=0 / bframes=11 / b_pyramid=2 / b_adapt=2 / b_bias=0 / direct=3 / weightb=1 / open_gop=0 / weightp=2 / keyint=240 / keyint_min=23 / scenecut=40 / intra_refresh=0 / rc=crf / mbtree=0 / crf=17.1 / qcomp=0.60 / qpmin=0 / qpmax=69 / qpstep=4 / ip_ratio=1.40 / pb_ratio=1.30 / aq=2:1.00
    Language                                 : English
    Default                                  : Yes
    Forced                                   : No

    Audio #1
    ID                                       : 2
    Format                                   : AC-3
    Format/Info                              : Audio Coding 3
    Mode extension                           : CM (complete main)
    Codec ID                                 : A_AC3
    Duration                                 : 1h 44mn
    Bit rate mode                            : Constant
    Bit rate                                 : 448 Kbps
    Channel(s)                               : 6 channels
    Channel positions                        : Front: L C R, Side: L R, LFE
    Sampling rate                            : 48.0 KHz
    Bit depth                                : 16 bits
    Compression mode                         : Lossy
    Stream size                              : 333 MiB (4%)
    Title                                    : Дублированный
    Language                                 : Russian
    Default                                  : Yes
    Forced                                   : No

    Audio #2
    ID                                       : 3
    Format                                   : AC-3
    Format/Info                              : Audio Coding 3
    Mode extension                           : CM (complete main)
    Codec ID                                 : A_AC3
    Duration                                 : 1h 44mn
    Bit rate mode                            : Constant
    Bit rate                                 : 640 Kbps
    Channel(s)                               : 6 channels
    Channel positions                        : Front: L C R, Side: L R, LFE
    Sampling rate                            : 48.0 KHz
    Bit depth                                : 16 bits
    Compression mode                         : Lossy
    Stream size                              : 476 MiB (6%)
    Title                                    : Авторский, Ю. Немахов
    Language                                 : Russian
    Default                                  : No
    Forced                                   : No

    Audio #3
    ID                                       : 4
    Format                                   : AC-3
    Format/Info                              : Audio Coding 3
    Mode extension                           : CM (complete main)
    Codec ID                                 : A_AC3
    Duration                                 : 1h 44mn
    Bit rate mode                            : Constant
    Bit rate                                 : 640 Kbps
    Channel(s)                               : 6 channels
    Channel positions                        : Front: L C R, Side: L R, LFE
    Sampling rate                            : 48.0 KHz
    Bit depth                                : 16 bits
    Compression mode                         : Lossy
    Stream size                              : 476 MiB (6%)
    Title                                    : Авторский, А. Карповский
    Language                                 : Russian
    Default                                  : No
    Forced                                   : No

    Audio #4
    ID                                       : 5
    Format                                   : AC-3
    Format/Info                              : Audio Coding 3
    Mode extension                           : CM (complete main)
    Codec ID                                 : A_AC3
    Duration                                 : 1h 44mn
    Bit rate mode                            : Constant
    Bit rate                                 : 640 Kbps
    Channel(s)                               : 6 channels
    Channel positions                        : Front: L C R, Side: L R, LFE
    Sampling rate                            : 48.0 KHz
    Bit depth                                : 16 bits
    Compression mode                         : Lossy
    Stream size                              : 476 MiB (6%)
    Language                                 : English
    Default                                  : No
    Forced                                   : No

    Text #1
    ID                                       : 6
    Format                                   : UTF-8
    Codec ID                                 : S_TEXT/UTF8
    Codec ID/Info                            : UTF-8 Plain Text
    Title                                    : Forced
    Language                                 : Russian
    Default                                  : Yes
    Forced                                   : No

    Text #2
    ID                                       : 7
    Format                                   : UTF-8
    Codec ID                                 : S_TEXT/UTF8
    Codec ID/Info                            : UTF-8 Plain Text
    Title                                    : Full, BD
    Language                                 : Russian
    Default                                  : No
    Forced                                   : No

    Text #3
    ID                                       : 8
    Format                                   : UTF-8
    Codec ID                                 : S_TEXT/UTF8
    Codec ID/Info                            : UTF-8 Plain Text
    Title                                    : Full, voronine
    Language                                 : Russian
    Default                                  : No
    Forced                                   : No

    Text #4
    ID                                       : 9
    Format                                   : UTF-8
    Codec ID                                 : S_TEXT/UTF8
    Codec ID/Info                            : UTF-8 Plain Text
    Title                                    : Forced
    Language                                 : English
    Default                                  : No
    Forced                                   : No

    Text #5
    ID                                       : 10
    Format                                   : UTF-8
    Codec ID                                 : S_TEXT/UTF8
    Codec ID/Info                            : UTF-8 Plain Text
    Title                                    : Full
    Language                                 : English
    Default                                  : No
    Forced                                   : No

    Text #6
    ID                                       : 11
    Format                                   : UTF-8
    Codec ID                                 : S_TEXT/UTF8
    Codec ID/Info                            : UTF-8 Plain Text
    Title                                    : SDH
    Language                                 : English
    Default                                  : No
    Forced                                   : No

    Menu
    00:00:00.000                             : en:00:00:00.000
    00:06:05.822                             : en:00:06:05.822
    00:11:14.254                             : en:00:11:14.254
    00:15:22.461                             : en:00:15:22.461
    00:18:37.030                             : en:00:18:37.030
    00:22:51.201                             : en:00:22:51.201
    00:24:51.364                             : en:00:24:51.364
    00:28:22.700                             : en:00:28:22.700
    00:32:03.711                             : en:00:32:03.711
    00:37:39.465                             : en:00:37:39.465
    00:42:10.818                             : en:00:42:10.818
    00:45:56.253                             : en:00:45:56.253
    00:48:48.675                             : en:00:48:48.675
    00:52:16.132                             : en:00:52:16.132
    00:57:02.876                             : en:00:57:02.876
    01:03:23.257                             : en:01:03:23.257
    01:08:42.033                             : en:01:08:42.033
    01:16:30.585                             : en:01:16:30.585
    01:19:47.238                             : en:01:19:47.238
    01:23:12.362                             : en:01:23:12.362
    01:28:23.087                             : en:01:28:23.087
    01:33:12.167                             : en:01:33:12.167
    01:37:07.654                             : en:01:37:07.654
    01:38:50.047                             : en:01:38:50.047

    x264 [info]: frame I:1550 Avg QP:17.34 size:149529
    x264 [info]: frame P:30192 Avg QP:18.74 size: 78812
    x264 [info]: frame B:117875 Avg QP:20.86 size: 37995
    pb.wtf



    Скачать Значит, война через торрент http://i48.fastpic.ru/big/2015/0512/e5/ab91027af6cf2203dd2e0c7c845596e5.png Скачать фильм Значит, война через торрент бесплантно в хорошем качестве Описание:Два секретных агента, которые к тому же и закадычные друзья, влюбляются в одну и ту же женщину, но ни один не желает уступить ... 10 10 8
    Info! Золотая раздача, скачанное не засчитывается.
    Торрент: Зарегистрирован [2015-05-12 09:17] · скачан: 210 раз
    Статус: √ проверено
    Размер: 8.33 GB
    Как cкачать? Как скачать Значит, война через торрент | qTorrent

    % Раздел Тема Автор DL S | L
    Фильмы (Blu-ray, BD-Remux, HDDVD) [ 39.39 GB ] Значит война / This Means War [2012 Blu-ray EUR 1080p] DUB [Театральная и Расширенная версия | ] bober100 Скачать
    1 | 0
    Фильмы 2012 [ 2.18 GB ] Значит война / This Means War [2012 BDRip-AVC от HQ-ViDEO DUB | Theatrical Versio] ~Relizer~ Скачать
    4 | 1
    Фильмы [HD 720p, 1080p] (Хороший звук DUB, MVO) [ 7.75 GB ] Значит война / This Means War [2012 BDRip 1080p Theatrical Cut] DUB еnvy Скачать
    2 | 0
    Фильмы (Blu-ray, BD-Remux, HDDVD) [ 21.45 GB ] Значит война / This Means War [2012 BDRemux 1080pDUB / Расширенная версия / Unrated Cut Ворон Скачать
    1 | 0
    Фильмы 2012 [ 703 MB ] Значит война / This Means War [2012 HDRip DUB ] [UNRATED] akcent Скачать
    1 | 0
    Фильмы (DVD фильмы) [ 5.34 GB ] Значит война / This Means War [2012 DVD9 DUB ] shuller Скачать
    1 | 0

    28-11-2019 20:33  

    Отключить всю рекламу на сайте

      Дорогой пользователь! Огромная просьба, поблагодарите релизера, оцените раздачу и оставьте свои комментарий, если Вы скачали Значит, война через торрент бесплатно! Внесите свою лепту в развитие PiratBit!
      Комментировать посты могут только пользователи прошедшие не сложную регистрацию
      Показать сообщения:    

      Значит, война через торрент
      Скачать бесплатно Значит, война
      Значит, война скачать торрент
      Значит, война смотреть онлайн
      Cкачать фильм Значит, война бесплатно
      Значит, война скачать торрент в хорошем качестве
      Значит, война смотреть онлайн бесплатно в хорошем качестве


      Вы не можете начинать темы
      Вы не можете отвечать на сообщения
      Вы не можете редактировать свои сообщения
      Вы не можете удалять свои сообщения
      Вы не можете голосовать в опросах
      Вы не можете прикреплять файлы к сообщениям
      Вы можете скачивать файлы