2 сезон

iTunes

MVO

1

2 сезон

iTunes

iTunes

1 сезон

RePack

30

Ultimate

ВАЖНО

ИГРА 18+

pack

RePack

MK11
pack

Легкие деньги

RePack

jed

RePack

fifa19

RePack

RDR2

RePack

NEED FOR SPEED™ PAYBACK

4 сезон

9 сезон

Бесстыжие 9 сезон

Все сериалы

все сериалы на PB.wtf

RePack

FAR CRY 5

Anonymous, добрый вечер, мы не успеваем собрать деньги на оплату серверов за декабрь и январь, помогите нам пожалуйста в это трудное время. В качестве благодарности мы отключим Вам всю рекламу на сайте (укажите свой ник в строку Ваше имя)!

×
  
Magnet ссылка

Седьмой сын / Seventh Son (Сергей Бодров) [2014 г., фэнтези, приключения, BDRip 1080p, Дубляж, Лицензия] Анаглиф (red-cyan ) pb.wtf

Седьмой сын через торрент pb.wtf

Размер: 5.93 GB | Добавлен: 5 лет 8 мес. назад | Торрент скачан:58 раз
Скачать  

12-05-2015 14:45 Седьмой сын Скачать торрент  

Седьмой сын / Seventh Son
Год выпуска: 2014
Страна: США, Великобритания, Канада, Китай
Жанр: фэнтези, приключения
Продолжительность: 01:42:00
Перевод: Дубляж, Лицензия

Режиссер: Сергей Бодров
Продюссер: Бэзил Иваник, Томас Тулл, Лайонел Уигрэм
Сценарий: Чарльз Ливитт, Стивен Найт, Мэтт Гринберг

Бюджет: $100 000 000
Премьера в мире: 17 декабря 2014

IMDB 5.50 (26 789)


В ролях: Бен Барнс, Джефф Бриджес, Джулианна Мур, Алисия Викандер, Антье Трауэ, Оливия Уильямс, Джон ДеСантис, Кит Харингтон, Джимон Хонсу, Джерард Планкет,

Роли дублировали: Антон Эльдаров, Владимир Антоник, Елена Соловьева, Мария Иващенко, Ирина Киреева

Описание: Рассказ в фильме пойдет про парня, который, так уж вышло, стал седьмым сыном седьмого сына. А только такой человек может стать ведьмаком. Но этого недостаточно, чтобы именовать себя так — необходимо пройти массу тренировок, а также усердно учиться. Ведь главное оружие ведьмака — это его ум. Хоть в народе их не любят, но кто-то же обязан убивать нечисть, хранить землю от сил зла и делать всю грязную работу? Юный Том Уорд попробует стать тем самым учеником ведьмака.

Доп. информация: Формат 3D: Анаглиф (red-cyan )



Качество: BDRip 1080p
Формат: MKV
Видео кодек: H.264
Аудио кодек: AC3
Видео: x264, 1920 x 800 (2,40:1), 7764 kbps, 23,976 fps, ( 0.211 bpp)
Аудио#1: Русский / AC3 / 48 KHz / 5.1 ch / 384 Kbps (Дубляж - BD 3D CEE)



скриншот   скриншот   скриншот   скриншот   скриншот   скриншот  
x264 [info]: frame I:1406 Avg QP:12.18 size:226582
x264 [info]: frame P:39866 Avg QP:15.36 size: 75123
x264 [info]: frame B:105620 Avg QP:17.53 size: 26110
x264 [info]: consecutive B-frames: 3.6% 4.2% 16.8% 34.7% 40.7%


Общее
Уникальный идентификатор : 191267566701385781505255664868796379860 (0x8FE4CB1CEB6B5EA3A9A8D753418BB2D4)
Полное имя : D:\ SeventhSon(2014)3D-Anaglyph.mkv
Формат : Matroska
Версия формата : Version 2
Размер файла : 5,93 Гбайт
Продолжительность : 1 ч. 42 м.
Общий поток : 8314 Кбит/сек
Дата кодирования : UTC 2015-04-29 04:53:51
Программа кодирования : mkvmerge v6.1.0 ('Old Devil') built on Mar 4 2013 09:10:42
Библиотека кодирования : libebml v1.3.0 + libmatroska v1.4.0

Видео
Идентификатор : 1
Формат : AVC
Формат/Информация : Advanced Video Codec
Профиль формата : High@L4.1
Параметр CABAC формата : Да
Параметр ReFrames формата : 4 кадра
Идентификатор кодека : V_MPEG4/ISO/AVC
Продолжительность : 1 ч. 42 м.
Битрейт : 7764 Кбит/сек
Ширина : 1920 пикселей
Высота : 800 пикселей
Соотношение сторон : 2,40:1
Режим частоты кадров : Постоянный
Частота кадров : 23,976 кадра/сек
Цветовое пространство : YUV
Субдискретизация насыщенности : 4:2:0
Битовая глубина : 8 бит
Тип развёртки : Прогрессивная
Бит/(Пиксели*Кадры) : 0.211
Размер потока : 5,54 Гбайт (93%)
Библиотека кодирования : x264 core 130 r2273 b3065e6
Настройки программы : cabac=1 / ref=4 / deblock=1:-2:-2 / analyse=0x3:0x113 / me=umh / subme=7 / psy=1 / psy_rd=1.00:0.00 / mixed_ref=1 / me_range=16 / chroma_me=1 / trellis=2 / 8x8dct=1 / cqm=0 / deadzone=21,11 / fast_pskip=1 / chroma_qp_offset=-2 / threads=3 / lookahead_threads=1 / sliced_threads=0 / nr=0 / decimate=1 / interlaced=0 / bluray_compat=0 / constrained_intra=0 / bframes=4 / b_pyramid=2 / b_adapt=2 / b_bias=0 / direct=1 / weightb=1 / open_gop=0 / weightp=2 / keyint=250 / keyint_min=23 / scenecut=40 / intra_refresh=0 / rc_lookahead=50 / rc=crf / mbtree=1 / crf=16.0 / qcomp=0.60 / qpmin=0 / qpmax=69 / qpstep=4 / ip_ratio=1.40 / aq=1:1.00
Default : Да
Forced : Нет

Аудио
Идентификатор : 2
Формат : AC-3
Формат/Информация : Audio Coding 3
Расширение режима : CM (complete main)
Параметр Endianness формата : Big
Идентификатор кодека : A_AC3
Продолжительность : 1 ч. 42 м.
Вид битрейта : Постоянный
Битрейт : 384 Кбит/сек
Каналы : 6 каналов
Расположение каналов : Front: L C R, Side: L R, LFE
Частота : 48,0 КГц
Битовая глубина : 16 бит
Метод сжатия : С потерями
Размер потока : 280 Мбайт (5%)
Default : Да
Forced : Нет


Седьмой сын скачать торрент


pb.wtf



Скачать Седьмой сын через торрент https://pic.kartinco.top/images/11/969qy.jpg Скачать фильм Седьмой сын через торрент бесплантно в хорошем качестве Описание: Рассказ в фильме пойдет про парня, который, так уж вышло, стал седьмым сыном седьмого сына. А только такой человек может стать ... 9.8 10 4
Торрент: Зарегистрирован [2015-05-12 14:45] · скачан: 58 раз
Статус: √ проверено
Размер: 5.93 GB
Как cкачать? Как скачать Седьмой сын через торрент | UTorrent

% Раздел Тема Автор DL S | L
Фильмы 2014 [DVDrip, WEB-DLRip, HDrip] [ 1.37 GB ] Седьмой сын / Seventh Son [2014 Китай WEB-DLRip] ] White Smoke Скачать
1 | 0
T Фильмы [HD 720p, 1080p] (Хороший звук DUB, MVO) [ 8.66 GB ] Седьмой сын / Seventh Son [2014 BDRip 1080p Ворон Скачать
1 | 0
Фильмы 2014 [DVDrip, WEB-DLRip, HDrip] [ 2.18 GB ] Седьмой сын / Seventh Son [2014 BDRip-AVC] DUB potroks Скачать
1 | 0
Фильмы (DVD фильмы) [ 5.86 GB ] Седьмой сын / Seventh Son [2014 DVD9] R5 voovaz Скачать
1 | 0
Фильмы 2014 [DVDrip, WEB-DLRip, HDrip] [ 1.46 GB ] Седьмой сын / Seventh Son [2014 Китай HDRip] ] White Smoke Скачать
1 | 0
Фильмы 2014 [DVDrip, WEB-DLRip, HDrip] [ 1.46 GB ] Седьмой сын / Seventh Son [2014 BDRip-AVC] DUB potroks Скачать
2 | 0
Фильмы 2014 [DVDrip, WEB-DLRip, HDrip] [ 2.06 GB ] Седьмой сын / Seventh Son [2014 HDRip ""] coc900 Скачать
1 | 0

28-11-2019 20:33  

Отключить всю рекламу на сайте

24-10-2015 08:15 Седьмой сын Скачать торрент  

встаньте кто нибудь на раздачу пожалустаpb.wtf



    Дорогой пользователь! Огромная просьба, поблагодарите релизера, оцените раздачу и оставьте свои комментарий, если Вы скачали Седьмой сын через торрент бесплатно! Внесите свою лепту в развитие PiratBit!
    Комментировать посты могут только пользователи прошедшие не сложную регистрацию
    Показать сообщения:    

    Седьмой сын через торрент
    Скачать бесплатно Седьмой сын
    Седьмой сын скачать торрент
    Седьмой сын смотреть онлайн
    Cкачать фильм Седьмой сын бесплатно
    Седьмой сын скачать торрент в хорошем качестве
    Седьмой сын смотреть онлайн бесплатно в хорошем качестве


    Вы не можете начинать темы
    Вы не можете отвечать на сообщения
    Вы не можете редактировать свои сообщения
    Вы не можете удалять свои сообщения
    Вы не можете голосовать в опросах
    Вы не можете прикреплять файлы к сообщениям
    Вы можете скачивать файлы