2 сезон

iTunes

MVO

1

2 сезон

iTunes

iTunes

1 сезон

RePack

30

Ultimate

ВАЖНО

ИГРА 18+

pack

RePack

MK11
pack

Легкие деньги

RePack

jed

RePack

fifa19

RePack

RDR2

RePack

NEED FOR SPEED™ PAYBACK

4 сезон

9 сезон

Бесстыжие 9 сезон

Все сериалы

все сериалы на PB.wtf

RePack

FAR CRY 5

Anonymous, добрый день, мы не успеваем собрать деньги на оплату серверов за декабрь и январь, помогите нам пожалуйста в это трудное время. В качестве благодарности мы отключим Вам всю рекламу на сайте (укажите свой ник в строку Ваше имя)!

×
  
Magnet ссылка

Желания женщин / Women Desires Part.1 [2015 г., Adult erotic music clips, WEB-DLRip 1080p, Оригинал] pb.wtf

Желания женщин через торрент pb.wtf

Размер: 5.01 GB | Добавлен: 5 лет 8 мес. назад | Торрент скачан:256 раз
Скачать  

13-05-2015 05:13 Желания женщин Скачать торрент  

Желания женщин / Women Desires Part.1
Год выпуска: 2015
Страна: All World
Жанр: Adult erotic music clips
Продолжительность: 02:37:53
Перевод: Оригинал

Описание:

Много ли на свете вещей прекраснее, чем красота женщины? В этих клипах - загадочная одухотворённость, манящая нежность, бодрящая весёлость, совершенство форм и неповторимость женского начала! Изящество и простота, ностальгичность и жизнерадостность, игривость и величие, молодость и зрелость, преданность и лукавость - клипы на любой вкус.
01. Alisa
02. Elizabeth Marxs - Bad to the Bone
03. Lovers Surprise
04. Darina L, Lola And Mya - Threesome Fantasy
05. Abby in the Dust
06. Sensual Moving
07. Chandler South - Steamy
08. Madonna Guerlain
09. Day Dream
10. Two Girls in sea
11. Ahhahahahaahahahahahahaha - Anntithesis
12. Beautiful Morning with Nici Dee
13. Caress 6 (Beguine Sequence)
14. Jezebel Vessir
15. Caress 7 (Goodbye Sequence)
16. Oliana
17. Black Chair
18. Caress 8 (Lingerie Sequence)
19. Sandra and Uma - Be My Muse
20. Anna Dancing and Teasing in her white panties
21. Dillion Harper - Nice Dreams
22. RoxxyX - Sexy Clip
23. Artistic Implied - Hollie & Summer
24. Chasing the sun
25. Nadia Uncovered
26. Cocktail
27. Melissa Manzoni - Christmas Past
28. Disclosure - You & Me feat. Eliza Doolittle
29. La Hamaca
30. Jored Gillian - Flora
Качество: WEB-DLRip 1080p
Формат: MP4
Видео кодек: AVC
Аудио кодек: AAC
Видео: AVC, 1280x720,1920x1080 (16:9), 25.000 -29.000fps, 1 813 Kbps (0.079 bit/pixel)
Аудио#1: AAC LC, 48.0 KHz, 2 ch, 147-256 Kbps, VBR
скриншот   скриншот   скриншот   скриншот   скриншот   скриншот  
скриншот   скриншот   скриншот   скриншот   скриншот   скриншот  

Общее
Полное имя : C:\Раздача\Клипы\Women Desires Part.1 (2015)\01. Alisa.mp4
Формат : MPEG-4
Профиль формата : Base Media / Version 2
Идентификатор кодека : mp42
Размер файла : 36,9 Мбайт
Продолжительность : 2 м. 37 с.
Режим общего битрейта : Переменный
Общий поток : 1964 Кбит/сек
Дата кодирования : UTC 2015-04-21 14:00:35
Дата пометки : UTC 2015-04-21 14:00:35

Видео
Идентификатор : 1
Формат : AVC
Формат/Информация : Advanced Video Codec
Профиль формата : High@L3.1
Параметр CABAC формата : Да
Параметр ReFrames формата : 4 кадра
Идентификатор кодека : avc1
Идентификатор кодека/Информация : Advanced Video Coding
Продолжительность : 2 м. 37 с.
Битрейт : 1813 Кбит/сек
Ширина : 1280 пикселей
Высота : 720 пикселей
Соотношение сторон : 16:9
Режим частоты кадров : Постоянный
Частота кадров : 25,000 кадров/сек
Цветовое пространство : YUV
Субдискретизация насыщенности : 4:2:0
Битовая глубина : 8 бит
Тип развёртки : Прогрессивная
Бит/(Пиксели*Кадры) : 0.079
Размер потока : 34,1 Мбайт (92%)
Библиотека кодирования : x264 core 144 r11 40bb568
Настройки программы : cabac=1 / ref=3 / deblock=1:0:0 / analyse=0x3:0x113 / me=hex / subme=7 / psy=1 / psy_rd=1.00:0.00 / mixed_ref=1 / me_range=16 / chroma_me=1 / trellis=1 / 8x8dct=1 / cqm=0 / deadzone=21,11 / fast_pskip=1 / chroma_qp_offset=-2 / threads=72 / lookahead_threads=5 / sliced_threads=0 / nr=0 / decimate=1 / interlaced=0 / bluray_compat=0 / stitchable=1 / constrained_intra=0 / bframes=3 / b_pyramid=2 / b_adapt=1 / b_bias=0 / direct=1 / weightb=1 / open_gop=0 / weightp=2 / keyint=infinite / keyint_min=25 / scenecut=40 / intra_refresh=0 / rc_lookahead=40 / rc=crf / mbtree=1 / crf=20.0 / qcomp=0.60 / qpmin=5 / qpmax=69 / qpstep=4 / vbv_maxrate=2750 / vbv_bufsize=7500 / crf_max=0.0 / nal_hrd=none / filler=0 / ip_ratio=1.40 / aq=1:1.00
Дата кодирования : UTC 2015-04-21 14:00:35
Дата пометки : UTC 2015-04-21 14:00:35

Аудио
Идентификатор : 2
Формат : AAC
Формат/Информация : Advanced Audio Codec
Профиль формата : LC
Идентификатор кодека : 40
Продолжительность : 2 м. 37 с.
Вид битрейта : Переменный
Битрейт : 147 Кбит/сек
Каналы : 2 канала
Расположение каналов : Front: L R
Частота : 48,0 КГц
Метод сжатия : С потерями
Размер потока : 2,76 Мбайт (7%)
Дата кодирования : UTC 2015-04-21 14:00:35
Дата пометки : UTC 2015-04-21 14:00:35

Общее
Полное имя : C:\Раздача\Клипы\Women Desires Part.1 (2015)\02. Elizabeth Marxs - Bad to the Bone.mp4
Формат : MPEG-4
Профиль формата : Base Media / Version 2
Идентификатор кодека : mp42
Размер файла : 162 Мбайт
Продолжительность : 4 м. 59 с.
Режим общего битрейта : Переменный
Общий поток : 4523 Кбит/сек
Дата кодирования : UTC 2015-04-19 19:58:10
Дата пометки : UTC 2015-04-19 19:58:10

Видео
Идентификатор : 1
Формат : AVC
Формат/Информация : Advanced Video Codec
Профиль формата : High@L4.0
Параметр CABAC формата : Да
Параметр ReFrames формата : 4 кадра
Идентификатор кодека : avc1
Идентификатор кодека/Информация : Advanced Video Coding
Продолжительность : 4 м. 59 с.
Битрейт : 4262 Кбит/сек
Ширина : 1920 пикселей
Высота : 1080 пикселей
Соотношение сторон : 16:9
Режим частоты кадров : Постоянный
Частота кадров : 29,970 кадров/сек
Цветовое пространство : YUV
Субдискретизация насыщенности : 4:2:0
Битовая глубина : 8 бит
Тип развёртки : Прогрессивная
Бит/(Пиксели*Кадры) : 0.069
Размер потока : 152 Мбайт (94%)
Библиотека кодирования : x264 core 144 r11 40bb568
Настройки программы : cabac=1 / ref=3 / deblock=1:0:0 / analyse=0x3:0x113 / me=hex / subme=7 / psy=1 / psy_rd=1.00:0.00 / mixed_ref=1 / me_range=16 / chroma_me=1 / trellis=1 / 8x8dct=1 / cqm=0 / deadzone=21,11 / fast_pskip=1 / chroma_qp_offset=-2 / threads=48 / lookahead_threads=8 / sliced_threads=0 / nr=0 / decimate=1 / interlaced=0 / bluray_compat=0 / stitchable=1 / constrained_intra=0 / bframes=3 / b_pyramid=2 / b_adapt=1 / b_bias=0 / direct=1 / weightb=1 / open_gop=0 / weightp=2 / keyint=infinite / keyint_min=29 / scenecut=40 / intra_refresh=0 / rc_lookahead=40 / rc=crf / mbtree=1 / crf=20.0 / qcomp=0.60 / qpmin=5 / qpmax=69 / qpstep=4 / vbv_maxrate=4950 / vbv_bufsize=13500 / crf_max=0.0 / nal_hrd=none / filler=0 / ip_ratio=1.40 / aq=1:1.00
Дата кодирования : UTC 2015-04-19 19:58:10
Дата пометки : UTC 2015-04-19 19:58:10
Основные цвета : BT.709
Характеристики трансфера : BT.709
Коэффициенты матрицы : BT.709

Аудио
Идентификатор : 2
Формат : AAC
Формат/Информация : Advanced Audio Codec
Профиль формата : LC
Идентификатор кодека : 40
Продолжительность : 4 м. 59 с.
Вид битрейта : Переменный
Битрейт : 256 Кбит/сек
Каналы : 2 канала
Расположение каналов : Front: L R
Частота : 48,0 КГц
Метод сжатия : С потерями
Размер потока : 9,14 Мбайт (6%)
Дата кодирования : UTC 2015-04-19 19:58:10
Дата пометки : UTC 2015-04-19 19:58:10

pb.wtf



Скачать Желания женщин через торрент https://pic.kartinco.top/images/11/nk5gz.jpg Скачать фильм Желания женщин через торрент бесплантно в хорошем качестве Описание: Много ли на свете вещей прекраснее, чем красота женщины? В этих клипах - загадочная одухотворённость, манящая нежность, бодрящая ... 9.4 10 22
Info! Золотая раздача, скачанное не засчитывается.
Торрент: Зарегистрирован [2015-05-13 05:13] · скачан: 256 раз
Статус: √ проверено
Размер: 5.01 GB
Как cкачать? Как скачать Желания женщин через торрент | UTorrent

28-11-2019 20:33  

Отключить всю рекламу на сайте

    Дорогой пользователь! Огромная просьба, поблагодарите релизера, оцените раздачу и оставьте свои комментарий, если Вы скачали Желания женщин через торрент бесплатно! Внесите свою лепту в развитие PiratBit!
    Комментировать посты могут только пользователи прошедшие не сложную регистрацию
    Показать сообщения:    

    Желания женщин через торрент
    Скачать бесплатно Желания женщин
    Желания женщин скачать торрент
    Желания женщин смотреть онлайн
    Cкачать фильм Желания женщин бесплатно
    Желания женщин скачать торрент в хорошем качестве
    Желания женщин смотреть онлайн бесплатно в хорошем качестве


    Вы не можете начинать темы
    Вы не можете отвечать на сообщения
    Вы не можете редактировать свои сообщения
    Вы не можете удалять свои сообщения
    Вы не можете голосовать в опросах
    Вы не можете прикреплять файлы к сообщениям
    Вы можете скачивать файлы