Доктор Стрэндж

Лицензия

Добыча

MVO

Дом дракона

1 сезон

Тор

Лицензия

Мэверик

Лицензия

Там, где раки поют

MVO

Властелин колец

1 сезон

Ultimate

pack

Рекомендуем

30

Repack

ВАЖНО

ВАЖНО

Ghostwire

RePack

jed

RePack

nioh2

RePack

RDR2

RePack

NEED FOR SPEED™ PAYBACK

RePack

скачать торрент

Кинопоиск HD

Острые козырьки 6 сезон

6 сезон

FAR CRY 6

RePack

скачать торрент

Лицензия

скачать торрент

MVO

1

1 сезон

скачать торрент

1 сезон

скачать торрент

Лицензия

  

Чудотворец / Сезон: 1 / Серии: 1-8 (8)(Дмитрий Константинов) [2014 г., Драма, HDTV 1080i]

Чудотворец через торрент pb.wtf

Размер: 23.66 GB | Добавлен: 7 лет 4 мес. назад | Торрент скачан:27 раз
Смотреть онлайн | Скачать   

17-11-2014 18:01 Чудотворец Скачать торрент  

Чудотворец
Год выпуска: 2014
Страна: Россия / Марс Медиа Энтертейнмент
Жанр: Драма
Продолжительность: ~ 00:48:00

Режиссер: Дмитрий Константинов

В ролях: Филипп Янковский, Фёдор Бондарчук, Оксана Фандера, Евгений Антропов, Аглая Шиловская, Михаил Горский, Дмитрий Мухамадеев, Фёдор Лавров, Галина Польских, Сергей Журавель, Владимир Виноградов, Анна Михалкова, Денис Беспалый, Арсений Гусев, Всеволод Шиловский, Егор Тимцуник, Владимир Лысенко, Олег Кассин, Виталий Московой, Кристина Бабушкина, Дмитрий Куличков, Дмитрий Сергин, Павел Поймалов, Светлана Колпакова, Артем Крестников, Юлия Чебакова, Глеб Гришанов, Арина Нестерова, Яна Сексте и др.

Описание: Ещё до перестройки в СССР существовала специальная лаборатория при Институте информационных технологий, где изучали экстрасенсорные способности людей, пытаясь объяснить их с научной точки зрения. Именно там впервые встречаются Николай Арбенин и Виктор Ставицкий. Их противостояние, начавшееся, как борьба двух мужчин за сердце женщины, с годами перерастает в настоящую «битву экстрасенсов» — только проходит она не на телеэкране, а в реальной жизни. Конец 1988 — начало 1989 годов: время, когда экстрасенсы собирали полные залы, выступали в прямом эфире по радио и центральным телеканалам. Время, когда противостояние Николая Арбенина и Виктора Ставицкого достигает своей кульминации.

Качество: HDTV 1080i
Формат: MPEG-TS
Видео кодек: AVC
Аудио кодек: MPEG Audio
Видео: ~ 8150 Кбит/с, 1920x1080, 16:9 25.000 кадр/с
Аудио#1: 2 ch, 192 Кбит/с 48,0 КГц
Внимание! Раздача ведётся путём добавления новых серий; при каждом добавлении создаётся новый торрент. Чтобы начать докачку новой серии, пользователям необходимо сделать следующее:
(1) остановить скачивание,
(2) удалить старый торрент у себя из клиента (старые серии удалять не надо),
(3) скачать новый торрент и запустить его у себя в клиенте вместо старого, при этом указать клиенту путь в старую папку куда и должно происходить скачивание новых серий.
Ваш клиент при этом должен произвести хеширование (проверку) старой папки (если не производит сам - помогите ему сделать это), и будет докачивать только те серии которых у вас ещё нет. Старые серии при этом не удаляются, а продолжают раздаваться!
Eсли вы уже удалили старые серии, то предотвратить повторную закачку старых серий можно, отжав галочку в соответсвующих местах при запуске нового торрента. По возможности, желательно не удалять старые серии как можно дольше чтобы релизёр не столько продолжал раздавать старые серии, а смог сконцентрироваться на новых.

Общее
Идентификатор : 1 (0x1)
Полное имя : H:\Чудотворец\Chudotvorec.HDTV(1080i).MediaClub\Chudotvorec.01.HDTV(1080i).MediaClub.ts
Формат : MPEG-TS
Размер файла : 2,88 Гбайт
Продолжительность : 47 м.
Режим общего битрейта : Переменный
Общий поток : 8695 Кбит/сек

Видео
Идентификатор : 5481 (0x1569)
Идентификатор меню : 1 (0x1)
Формат : AVC
Формат/Информация : Advanced Video Codec
Профиль формата : [email protected]
Параметр CABAC формата : Да
Параметр ReFrames формата : 3 кадра
Параметр GOP формата : M=4, N=32
Идентификатор кодека : 27
Продолжительность : 47 м.
Битрейт : 8072 Кбит/сек
Ширина : 1920 пикселей
Высота : 1080 пикселей
Соотношение сторон : 16:9
Частота кадров : 25,000 кадров/сек
Стандарт вещания : Component
Цветовое пространство : YUV
Субдискретизация насыщенности : 4:2:0
Битовая глубина : 8 бит
Тип развёртки : Чересстрочная
Порядок развёртки : Верхнее поле первое
Бит/(Пиксели*Кадры) : 0.156
Размер потока : 2,68 Гбайт (93%)
Основные цвета : BT.709
Характеристики трансфера : BT.709
Коэффициенты матрицы : BT.709
colour_range : Limited

Аудио
Идентификатор : 5485 (0x156D)
Идентификатор меню : 1 (0x1)
Формат : MPEG Audio
Версия формата : Version 1
Профиль формата : Layer 2
Идентификатор кодека : 3
Продолжительность : 47 м.
Вид битрейта : Постоянный
Битрейт : 192 Кбит/сек
Каналы : 2 канала
Частота : 48,0 КГц
Метод сжатия : С потерями
Размер потока : 65,2 Мбайт (2%)
Язык : Russian


Чудотворец скачать торрент. Добавлены 7-8 Серии





Скачать Чудотворец через торрент https://pic1.kartinco.top/images/81/3u6hv.jpg Скачать, смотреть онлайн Чудотворец бесплантно в хорошем качестве Описание: Ещё до перестройки в СССР существовала специальная лаборатория при Институте информационных технологий, где изучали ... 8.6 10 11
Торрент: Зарегистрирован [2015-05-13 08:27] · скачан: 27 раз
Статус: √ проверено
Размер: 23.66 GB
Как cкачать? Как скачать Чудотворец через торрент | UTorrent

% Раздел Тема Автор DL S | L
Наши сериалы [ 5.41 GB ] Чудотворец / Сезон: 1 / Серии 1-8 | | HDTVRip Assasinca Скачать
1 | 0



Последний раз редактировалось: Assasinca (2014-11-20 20:20), всего редактировалось 3 раз(а)

28-11-2019 20:33  


Отключить вcю реклaмy на сайте, в т.ч. и в плеере онлайн просмотра!

19-11-2014 12:44 Чудотворец Скачать торрент  

неплохой сериал



19-11-2014 20:02 Чудотворец Скачать торрент  

посмотрим...



20-11-2014 17:51 Чудотворец Скачать торрент  

хорош хорош !!! филипп - сын олега янковского)в этой роли он замечателен.ждем 2 сезона .



14-08-2016 08:20 Чудотворец Скачать торрент  

пока ждёте второго сезона ,не могли бы не уходить с раздачи первого?ибо 8 месяцев скачивания уже немного напрягают



    Дорогой пользователь! Огромная просьба, поблагодарите релизера, оцените раздачу и оставьте свои комментарий, если Вы скачали Чудотворец через торрент бесплатно!!
    Комментировать посты могут только пользователи прошедшие не сложную регистрацию
    Показать сообщения:    


    Чудотворец через торрент
    Скачать бесплатно Чудотворец
    Чудотворец скачать торрент
    Чудотворец смотреть онлайн
    Cкачать фильм Чудотворец бесплатно
    Чудотворец скачать торрент в хорошем качестве
    Чудотворец смотреть онлайн бесплатно в хорошем качестве
    Вы не можете начинать темы
    Вы не можете отвечать на сообщения
    Вы не можете редактировать свои сообщения
    Вы не можете удалять свои сообщения
    Вы не можете голосовать в опросах
    Вы не можете прикреплять файлы к сообщениям
    Вы можете скачивать файлы