2 сезон

iTunes

MVO

1

2 сезон

iTunes

iTunes

1 сезон

RePack

30

Новинка

ВАЖНО

ИГРА 18+

pack

RePack

MK11
pack

Легкие деньги

RePack

jed

RePack

fifa19

RePack

RDR2

RePack

NEED FOR SPEED™ PAYBACK

4 сезон

9 сезон

Бесстыжие 9 сезон

Все сериалы

все сериалы на PB.wtf

RePack

FAR CRY 5

Anonymous, добрый вечер, мы не успеваем собрать деньги на оплату серверов за декабрь и январь, помогите нам пожалуйста в это трудное время. В качестве благодарности мы отключим Вам всю рекламу на сайте (укажите свой ник в строку Ваше имя)!

×
  
Magnet ссылка

Невозмутимый / Холодный как камень / Без эмоций / Stone Cold (Крэйг Р. Бэксли) [1991 г., боевик, драма, криминал, BDRip 720p] DVO + AVO (60 Fps) pb.wtf

Невозмутимый через торрент pb.wtf

Размер: 4.55 GB | Добавлен: 5 лет 8 мес. назад | Торрент скачан:57 раз
Скачать  

13-05-2015 11:37 Невозмутимый Скачать торрент  

Невозмутимый / Холодный как камень / Без эмоций / Stone Cold
Год выпуска: 1991
Страна: США
Жанр: боевик, драма, криминал
Продолжительность: 01:32:01
Перевод: Профессиональный двухголосый закадровый + авторский ( Михалев )

Режиссер: Крэйг Р. Бэксли
Продюссер: Йорам Бен-Ами, Уолтер Донигер, Ник Грилло
Сценарий: Уолтер Донигер

Бюджет: $25 000 000
Премьера в мире: 17 мая 1991

IMDB 5.80 (4385)


В ролях: Брайан Босворт, Лэнс Хенриксен, Уильям Форсайт, Арабелла Хольцбог, Сэм МакМюррей, Ричард Гант, Пауло Тока, Дэвид Тресс, Ивэн Джеймс, Тони Пирс

Описание: Джо Хафф — полицейский, который внедряется в банду рокеров, терроризирующую городок в штате Миссисипи, подминая под себя не только рядовых его жителей и подпольных бизнесменов, но и местные органы власти, включая представителей правосудия. Внешность и манеры поведения Джо позволяют ему выдать себя среди рокеров за своего и под именем Джо Стоуна начать разработку операции по захвату всей моторизованной и до зубов вооруженной банды, которой руководит безжалостный Чейнз.


Качество: BDRip 720p / 60 Fps
Формат: MKV
Видео кодек: H.264
Аудио кодек: AC3
Видео: x264, 1280 x 696 (1,85:1), 6166 kbps, 59,880 fps, ( 0.116 bpp)
Аудио#1: AC-3, 48.0 KHz, 2 ch, 384 Kbps (Russian (двухголосый закадровый))
Аудио#2: AC-3, 48.0 KHz, 2 ch, 384 Kbps (Russian - AVO (Михалев))



скриншот   скриншот   скриншот   скриншот   скриншот   скриншот  Автор рипа: slaventi-69
Общее
Уникальный идентификатор : 223750769246903467714350843184887029023 (0xA854D4A5F3C0C1D79BEB0AAAA0D6DD1F)
Полное имя : D:\Stone.Cold.1991.BDRip.720p.(60Fps).mkv
Формат : Matroska
Версия формата : Version 4 / Version 2
Размер файла : 4,55 Гбайт
Продолжительность : 1 ч. 32 м.
Общий поток : 7075 Кбит/сек
Название фильма : Невозмутимый / Холодный как камень / Без эмоций / Stone Cold (1991) BDRip 720p (60 Fps)
Дата кодирования : UTC 2015-05-13 10:46:10
Программа кодирования : mkvmerge v6.2.0 ('Promised Land') built on Apr 28 2013 12:22:01
Библиотека кодирования : libebml v1.3.0 + libmatroska v1.4.0

Видео
Идентификатор : 1
Формат : AVC
Формат/Информация : Advanced Video Codec
Профиль формата : High@L4.1
Параметр CABAC формата : Да
Параметр ReFrames формата : 4 кадра
Идентификатор кодека : V_MPEG4/ISO/AVC
Продолжительность : 1 ч. 32 м.
Битрейт : 6166 Кбит/сек
Ширина : 1280 пикселей
Высота : 696 пикселей
Соотношение сторон : 1,85:1
Режим частоты кадров : Постоянный
Частота кадров : 59,880 кадров/сек
Частота кадров в оригинале : 59,940 кадров/сек
Цветовое пространство : YUV
Субдискретизация насыщенности : 4:2:0
Битовая глубина : 8 бит
Тип развёртки : Прогрессивная
Бит/(Пиксели*Кадры) : 0.116
Размер потока : 3,96 Гбайт (87%)
Заголовок : Stone Cold (1991) BDRip 720p (60 Fps).mkv
Библиотека кодирования : x264 core 130 r2273 b3065e6
Настройки программы : cabac=1 / ref=4 / deblock=1:-3:-3 / analyse=0x3:0x113 / me=umh / subme=8 / psy=1 / psy_rd=1.00:0.00 / mixed_ref=1 / me_range=24 / chroma_me=1 / trellis=2 / 8x8dct=1 / cqm=0 / deadzone=21,11 / fast_pskip=1 / chroma_qp_offset=-2 / threads=3 / lookahead_threads=1 / sliced_threads=0 / nr=0 / decimate=1 / interlaced=0 / bluray_compat=0 / constrained_intra=0 / bframes=4 / b_pyramid=2 / b_adapt=2 / b_bias=0 / direct=1 / weightb=1 / open_gop=0 / weightp=2 / keyint=250 / keyint_min=25 / scenecut=40 / intra_refresh=0 / rc_lookahead=50 / rc=crf / mbtree=1 / crf=16.0 / qcomp=0.60 / qpmin=0 / qpmax=69 / qpstep=4 / ip_ratio=1.40 / aq=1:1.00
Default : Да
Forced : Нет

Аудио #1
Идентификатор : 2
Формат : AC-3
Формат/Информация : Audio Coding 3
Расширение режима : CM (complete main)
Параметр Endianness формата : Big
Идентификатор кодека : A_AC3
Продолжительность : 1 ч. 32 м.
Вид битрейта : Постоянный
Битрейт : 384 Кбит/сек
Каналы : 2 канала
Расположение каналов : Front: L R
Частота : 48,0 КГц
Битовая глубина : 16 бит
Метод сжатия : С потерями
Размер потока : 253 Мбайт (5%)
Заголовок : MVO
Язык : Russian
Default : Да
Forced : Нет

Аудио #2
Идентификатор : 3
Формат : AC-3
Формат/Информация : Audio Coding 3
Расширение режима : CM (complete main)
Параметр Endianness формата : Big
Идентификатор кодека : A_AC3
Продолжительность : 1 ч. 32 м.
Вид битрейта : Постоянный
Битрейт : 384 Кбит/сек
Каналы : 2 канала
Расположение каналов : Front: L R
Частота : 48,0 КГц
Битовая глубина : 16 бит
Метод сжатия : С потерями
Размер потока : 253 Мбайт (5%)
Заголовок : AVO ( Михалев )
Язык : Russian
Default : Нет
Forced : Нет

Меню
00:00:00.000 : en:00:00:00.000
00:06:30.973 : en:00:06:30.973
00:17:19.955 : en:00:17:19.955
00:23:31.993 : en:00:23:31.993
00:29:25.930 : en:00:29:25.930
00:36:54.003 : en:00:36:54.003
00:43:53.005 : en:00:43:53.005
00:51:54.986 : en:00:51:54.986
00:58:08.902 : en:00:58:08.902
01:05:06.902 : en:01:05:06.902
01:13:19.561 : en:01:13:19.561
01:27:50.932 : en:01:27:50.932
01:32:00.806 : en:01:32:00.806


Невозмутимый скачать торрент


pb.wtf



Скачать Невозмутимый через торрент http://pic.kartinco.top/images/11/cgpe8.jpg Скачать фильм Невозмутимый через торрент бесплантно в хорошем качестве Описание: Джо Хафф — полицейский, который внедряется в банду рокеров, терроризирующую городок в штате Миссисипи, подминая под себя не ... 10 10 6
Торрент: Зарегистрирован [2015-05-13 11:37] · скачан: 57 раз
Статус: √ проверено
Размер: 4.55 GB
Как cкачать? Как скачать Невозмутимый через торрент | UTorrent

% Раздел Тема Автор DL S | L
Фильмы (WEB-DL 720p, 1080p) [ 3.83 GB ] Невозмутимый / Холодный как камень / Без эмоций / Stone Cold [1991 HDTVRip 720p] DVO + 3 AVO + Original Eng Drue Скачать
1 | 0

28-11-2019 20:33  

Отключить всю рекламу на сайте

14-05-2015 11:35 Невозмутимый Скачать торрент  

slaventi-69, аудиодорожка № 1, DVO или MVO? Расхождение в описании релиза и в приложенном Вами отчете МИ:

Тех. данные:

slaventi-69 писал(а):

Аудио#1: AC-3, 48.0 KHz, 2 ch, 384 Kbps (Russian (двухголосый закадровый))

Медиаинфо:

slaventi-69 писал(а):

Заголовок : MVO

Правила оформления раздач в разделе «Фильмов»:

Цитата:

7 Перевод
7.1 Должен быть указан точно. Если известен автор перевода и/или кем осуществлен перевод следует дополнить:
*Оригинал (Перевод не требуется).
*Одноголосый закадровый (На фоне оригинала звучит голос одного переводчика).
*Двухголосый закадровый (На фоне оригинала звучат голоса двух переводчиков (Обычно м/ж)).
*Многоголосый закадровый (На фоне оригинала звучат голоса нескольких переводчиков (более 2х)).
*Дублированный (оригинальных голосов неслышно).
*Субтитры (текстовое сопровождение видео, дублирующее и иногда дополняющее, например для слабослышащих или глухих зрителей, звуковую дорожку фильма или передачи).
7.2 Если перевод осуществляла какая либо из релиз групп, например "LostFilm" или "NovaFilm" и т.д., то это обязательно должно быть указано в графе "Перевод". Пример: "Перевод: Многоголосый, закадровый (LostFilm)".

pb.wtf



14-05-2015 17:35 Невозмутимый Скачать торрент  

В релизе - Профессиональный двухголосый закадровый , в МИ была допущена ошибка, исправлять ее сейчас смысла особого не вижу, в описании релиза все указано правильно. На Ваше усмотрение.pb.wtf



23-05-2015 04:32 Невозмутимый Скачать торрент  

Всегда удивляло кому может нравится смотреть фильмы с 60 fps, это ведь кардинально меняет отношение к картине, причем не в лучшую сторону.

При просмотре в данном качестве складывается ощущение, что смотришь отечественный сериал - также низкопробно и халтурно снято.pb.wtf



23-05-2015 04:52 Невозмутимый Скачать торрент  

PiratMan, В нынешнее время спецэффекты такие что уже можно позволить и более плавную картинку.Дабы разглядеть все детали.pb.wtf



    Дорогой пользователь! Огромная просьба, поблагодарите релизера, оцените раздачу и оставьте свои комментарий, если Вы скачали Невозмутимый через торрент бесплатно! Внесите свою лепту в развитие PiratBit!
    Комментировать посты могут только пользователи прошедшие не сложную регистрацию
    Показать сообщения:    

    Невозмутимый через торрент
    Скачать бесплатно Невозмутимый
    Невозмутимый скачать торрент
    Невозмутимый смотреть онлайн
    Cкачать фильм Невозмутимый бесплатно
    Невозмутимый скачать торрент в хорошем качестве
    Невозмутимый смотреть онлайн бесплатно в хорошем качестве


    Вы не можете начинать темы
    Вы не можете отвечать на сообщения
    Вы не можете редактировать свои сообщения
    Вы не можете удалять свои сообщения
    Вы не можете голосовать в опросах
    Вы не можете прикреплять файлы к сообщениям
    Вы можете скачивать файлы