Ссылка на приватное зеркало всего за 1$. Внимание количество ограничено!!!

OK

1+1

iTunes

мы

OK

1

WEB-DLRip

Джокер

Пифагор

Ведьмак / The Witcher сериал

iTunes

ПШазам

ОК

Оно 2

iTunes

30
pack

Вам бонус

ВАЖНО

!!Акция!!

Alien_RageХит недели

RePack

Resident Evil 21

ИГРА 18+

pack

RePack

jed

RePack

fifa19

RePack

Assassins Creed: Odyssey

RePack

NEED FOR SPEED™ PAYBACK

4 сезон

9 сезон

Бесстыжие 9 сезон

Все сериалы

все сериалы на PB.wtf

RePack

FAR CRY 5
  

Фокус (Гленн Фикарра) [2015, драма, мелодрама, комедия, WEB-DLRip, Дубляж - Лицензия / iTunes] pb.wtf

Фокус через торрент pb.wtf

Размер: 1.37 GB | Добавлен: 4 года 8 мес. назад | Торрент скачан:1990 раз
Скачать  

13-05-2015 11:39 Фокус Скачать торрент  


Фокус / Focus
«Узнай в чём фокус»

ИНФОРМАЦИЯ:
Год выпуска:2015
Страна: США, Аргентина
Жанр: драма, мелодрама, комедия, криминал
Продолжительность: 01:44:40
Перевод: Дубляж - [Лицензия / iTunes]
Режиссер: Гленн Фикарра , Джон Рекуа

В Ролях:


Уилл Смит (Nicky), Марго Робби (Jess), Адриан Мартинес (Farhad), Джералд МакРэйни (Owens), Родриго Санторо (Garriga), Б.Д. Вонг (Liyuan), Бреннан Браун (Horst), Роберт Тейлор (McEwen), Дотан Бонен (Gordon), Грифф Ферст (Gareth), Стефани Онор (Janice), Дэвид Стэнфорд (Drunken Stranger)

Описание:
История об опытном мошеннике, который влюбляется в девушку, делающую первые шаги на поприще нелегального отъема средств у граждан. Отношения становятся для них проблемой, когда обнаруживается, что романтика мешает их нечестному бизнесу.

  • Мировая премьера:25 февраля 2015

    ТЕХ.ДАННЫЕ:
    Качество: WEB-DLRip
    Формат: AVI
    Видео кодек: XviD
    Аудио кодек: AC3
    Видео: XviD, 720x400 (16:9), 1476 kbps, 23,976 fps, 0,203 bpp
    Аудио: AC3 / 5.1 / 48 kHz / 384 kbps / 16 bit



    Код:

    General
    Complete name                            : D:\Торенты\F0kys.2015.D.WEB-DLRip.1400MB.avi
    Format                                   : AVI
    Format/Info                              : Audio Video Interleave
    File size                                : 1.37 GiB
    Duration                                 : 1h 44mn
    Overall bit rate                         : 1 870 Kbps
    Writing application                      : VirtualDubMod 1.5.10.2 (build 2540/release)
    Writing library                          : VirtualDubMod build 2540/release

    Video
    ID                                       : 0
    Format                                   : MPEG-4 Visual
    Format profile                           : Advanced Simple@L5
    Format settings, BVOP                    : 2
    Format settings, QPel                    : No
    Format settings, GMC                     : No warppoints
    Format settings, Matrix                  : Default (MPEG)
    Codec ID                                 : XVID
    Codec ID/Hint                            : XviD
    Duration                                 : 1h 44mn
    Bit rate                                 :  1476 Kbps
    Width                                    : 720 pixels
    Height                                   : 400 pixels
    Display aspect ratio                     : 16:9
    Frame rate                               : 23.976 fps
    Color space                              : YUV
    Chroma subsampling                       : 4:2:0
    Bit depth                                : 8 bits
    Scan type                                : Progressive
    Compression mode                         : Lossy
    Bits/(Pixel*Frame)                       : 0.203
    Stream size                              : 1.03 GiB (75%)
    Writing library                          : XviD 1.2.1 (UTC 2008-12-04)

    Audio
    ID                                       : 1
    Format                                   : AC-3
    Format/Info                              : Audio Coding 3
    Mode extension                           : CM (complete main)
    Codec ID                                 : 2000
    Duration                                 : 1h 44mn
    Bit rate mode                            : Constant
    Bit rate                                 : 384 Kbps
    Channel(s)                               : 6 channels
    Channel positions                        : Front: L C R, Side: L R, LFE
    Sampling rate                            : 48.0 KHz
    Bit depth                                : 16 bits
    Compression mode                         : Lossy
    Stream size                              : 287 MiB (21%)
    Alignment                                : Split accross interleaves

    Скриншоты:


    © Оформление by Ворон
    pb.wtf



  • Скачать Фокус через торрент http://s020.radikal.ru/i709/1505/b9/ea879822d246.png Скачать фильм Фокус через торрент бесплантно в хорошем качестве Описание: История об опытном мошеннике, который влюбляется в девушку, делающую первые шаги на поприще нелегального отъема средств у ... 10 10 46
    Info! Золотая раздача, скачанное не засчитывается.
    Торрент: Зарегистрирован [2015-05-13 11:39] · скачан: 1 990 раз
    Статус: √ проверено
    Размер: 1.37 GB
    Как cкачать? Как скачать Фокус через торрент | qTorrent

    % Раздел Тема Автор DL S | L
    Азиатские фильмы [ 8.57 GB ] Нулевой фокус / Zero no shôten [1961 BDRip 1080p by msltel] VO msltel Скачать
    1 | 0
    Азиатские фильмы [ 2.75 GB ] Нулевой фокус / Zero no shôten [1961 BDRip 720p by msltel] VO msltel Скачать
    1 | 0
    Документальные фильмы и телепередачи [ 4 GB ] Смертельная магия / Death by Magic / Сезон: 1 / Серии: 1-8 из 8 [2018 документальный шоу фокусы WEB-DLRip] [MVO] killermax2013 Скачать
    1 | 0
    Документальные фильмы и телепередачи [ 13.57 GB ] Смертельная магия / Death by Magic / Сезон: 1 / Серии: 1-8 из 8 [2018 документальный шоу фокусы WEB-DL 1080p] [MVO] killermax2013 Скачать
    1 | 0
    Ultra HD (UHD: 2K, 4K, 8K) — видео сверхвысокой чёткости [ 23.07 GB ] Фокус / Focus [2014 UHD WEBRip 2160p] DUB + AVO [Гаврилов] sheker187 Скачать
    1 | 0
    Фильмы [HD 720p, 1080p] (Хороший звук DUB, MVO) [ 5.03 GB ] Фокус / Focus [2014 BDRip 1080p HEVC ] Мичман37 Скачать
    1 | 0
    Порно фильмы HD [ 3.65 GB ] Фокусировка на Сиськи / Rack Focus [2016 Gonzo Anal WEB-DL 720p Оригинальный] DJASFUL Скачать
    1 | 0

    28-11-2019 20:33  

    Отключить всю рекламу на сайте

    15-05-2015 14:45 Фокус Скачать торрент  

    Отличный фильм. спасибо!pb.wtf



      Дорогой пользователь! Огромная просьба, поблагодарите релизера, оцените раздачу и оставьте свои комментарий, если Вы скачали Фокус через торрент бесплатно! Внесите свою лепту в развитие PiratBit!
      Комментировать посты могут только пользователи прошедшие не сложную регистрацию
      Показать сообщения:    

      Фокус через торрент
      Скачать бесплатно Фокус
      Фокус скачать торрент
      Фокус смотреть онлайн
      Cкачать фильм Фокус бесплатно
      Фокус скачать торрент в хорошем качестве
      Фокус смотреть онлайн бесплатно в хорошем качестве


      Вы не можете начинать темы
      Вы не можете отвечать на сообщения
      Вы не можете редактировать свои сообщения
      Вы не можете удалять свои сообщения
      Вы не можете голосовать в опросах
      Вы не можете прикреплять файлы к сообщениям
      Вы можете скачивать файлы