2 сезон

iTunes

MVO

1

2 сезон

iTunes

iTunes

1 сезон

RePack

30

Новинка

ВАЖНО

ИГРА 18+

pack

RePack

MK11
pack

Легкие деньги

RePack

jed

RePack

fifa19

RePack

RDR2

RePack

NEED FOR SPEED™ PAYBACK

4 сезон

9 сезон

Бесстыжие 9 сезон

Все сериалы

все сериалы на PB.wtf

RePack

FAR CRY 5

Anonymous, добрый день, мы не успеваем собрать деньги на оплату серверов за декабрь и январь, помогите нам пожалуйста в это трудное время. В качестве благодарности мы отключим Вам всю рекламу на сайте (укажите свой ник в строку Ваше имя)!

×
  
Magnet ссылка

Замкнутая цепь / Closed Circuit (Джон Краули ) [2013, триллер, драма, криминал, HDRip, MVO Лицензия] pb.wtf

Замкнутая цепь через торрент pb.wtf

Размер: 1.45 GB | Добавлен: 5 лет 8 мес. назад | Торрент скачан:264 раза
Скачать  

13-05-2015 11:56 Замкнутая цепь Скачать торрент  


Замкнутая цепь / Closed Circuit
«They see your every move»

ИНФОРМАЦИЯ:
Год выпуска:2013
Страна: Великобритания, США
Жанр: триллер, драма, криминал, детектив
Продолжительность: 01:36:01
Перевод: Профессиональный многоголосый [Лицензия]
Режиссер: Джон Краули

В Ролях:


Эрик Бана (Martin Rose), Ребекка Холл (Claudia Simmons-Howe), Киран Хайндс (Devlin), Джим Бродбент (Attorney General), Кейт Лок (Mother), Кэтерин Пресс (Pregnant Daughter), Патрик Уорнер (Young Man on Cellphone), Рики Никсон (Fish Trader), Дэниэл Туит (Drinks Trader), Зора Бишоп (Mother of Toddler), Вики Джэм (Teenage Girl), Зара Ахмади (Woman on Cellphone)

Описание:
На повестке дня - борьба с терроризмом. Угроза очередного террористического выпада объединяет экс-любовников Клодию и Мартина, зачисленных в команду сопротивления злодеям. С риском для жизни они не только устраняют угрозу, но и проверяют, на фоне главных мировых достопримечательностей, угасли ли их романтические чувства или что-то ещё искрит.

  • Мировая премьера:28 августа 2013

    ТЕХ.ДАННЫЕ:
    Качество: HDRip
    Формат: AVI
    Видео кодек: XviD
    Аудио кодек: AC3
    Видео: XviD, 720x304 (2.35:1), 1776 kbps, 23,976 fps, 0,322 bpp
    Аудио: AC3 / 5.1 / 48 kHz / 384 kbps / 16 bit



    Код:

    General
    Complete name                            : D:\Торенты\Zamknutaja.cep.2013.HDRip.avi
    Format                                   : AVI
    Format/Info                              : Audio Video Interleave
    File size                                : 1.45 GiB
    Duration                                 : 1h 36mn
    Overall bit rate                         : 2 169 Kbps
    Writing application                      : VirtualDubMod 1.5.10.2 (build 2540/release)
    Writing library                          : VirtualDubMod build 2540/release

    Video
    ID                                       : 0
    Format                                   : MPEG-4 Visual
    Format profile                           : Advanced Simple@L5
    Format settings, BVOP                    : 2
    Format settings, QPel                    : No
    Format settings, GMC                     : No warppoints
    Format settings, Matrix                  : Default (MPEG)
    Codec ID                                 : XVID
    Codec ID/Hint                            : XviD
    Duration                                 : 1h 36mn
    Bit rate                                 : 1776 Kbps
    Width                                    : 720 pixels
    Height                                   : 304 pixels
    Display aspect ratio                     : 2.35:1
    Frame rate                               : 23.976 fps
    Color space                              : YUV
    Chroma subsampling                       : 4:2:0
    Bit depth                                : 8 bits
    Scan type                                : Progressive
    Compression mode                         : Lossy
    Bits/(Pixel*Frame)                       : 0.322
    Stream size                              : 1.13 GiB (78%)
    Writing library                          : XviD 1.2.1 (UTC 2008-12-04)

    Audio
    ID                                       : 1
    Format                                   : AC-3
    Format/Info                              : Audio Coding 3
    Mode extension                           : CM (complete main)
    Codec ID                                 : 2000
    Duration                                 : 1h 36mn
    Bit rate mode                            : Constant
    Bit rate                                 : 384 Kbps
    Channel(s)                               : 6 channels
    Channel positions                        : Front: L C R, Side: L R, LFE
    Sampling rate                            : 48.0 KHz
    Bit depth                                : 16 bits
    Compression mode                         : Lossy
    Stream size                              : 264 MiB (18%)
    Alignment                                : Split accross interleaves

    Скриншоты:


    © Оформление by Ворон
    pb.wtf



  • Скачать Замкнутая цепь через торрент http://s017.radikal.ru/i434/1505/ce/b3fe7d830f39.png Скачать фильм Замкнутая цепь через торрент бесплантно в хорошем качестве Описание: На повестке дня - борьба с терроризмом. Угроза очередного террористического выпада объединяет экс-любовников Клодию и Мартина, ... 8.6 10 14
    Торрент: Зарегистрирован [2015-05-13 11:56] · скачан: 264 раз
    Статус: √ проверено
    Размер: 1.45 GB
    Как cкачать? Как скачать Замкнутая цепь через торрент | UTorrent

    % Раздел Тема Автор DL S | L
    Фильмы 2013 [DVDrip, WEB-DLRip, HDrip] [ 1.46 GB ] Замкнутая цепь / Closed Circuit [2013 BDRip-AVC] MVO [] potroks Скачать
    1 | 0
    Фильмы [HD 720p, 1080p] (Хороший звук DUB, MVO) [ 11.08 GB ] Замкнутая цепь / Closed Circuit [2013 BDRip 1080p многоголосый [] Ворон Скачать
    1 | 0
    Фильмы [HD 720p, 1080p] (Хороший звук DUB, MVO) [ 6.68 GB ] Замкнутая цепь / Closed Circuit [2013 BDRip 1080p MVO] Ворон Скачать
    1 | 0

    28-11-2019 20:33  

    Отключить всю рекламу на сайте

    13-05-2015 17:34 Замкнутая цепь Скачать торрент  

    Такие унылые рожи на скрин-шотах (особенно №3)... йяааах. pb.wtf



      Дорогой пользователь! Огромная просьба, поблагодарите релизера, оцените раздачу и оставьте свои комментарий, если Вы скачали Замкнутая цепь через торрент бесплатно! Внесите свою лепту в развитие PiratBit!
      Комментировать посты могут только пользователи прошедшие не сложную регистрацию
      Показать сообщения:    

      Замкнутая цепь через торрент
      Скачать бесплатно Замкнутая цепь
      Замкнутая цепь скачать торрент
      Замкнутая цепь смотреть онлайн
      Cкачать фильм Замкнутая цепь бесплатно
      Замкнутая цепь скачать торрент в хорошем качестве
      Замкнутая цепь смотреть онлайн бесплатно в хорошем качестве


      Вы не можете начинать темы
      Вы не можете отвечать на сообщения
      Вы не можете редактировать свои сообщения
      Вы не можете удалять свои сообщения
      Вы не можете голосовать в опросах
      Вы не можете прикреплять файлы к сообщениям
      Вы можете скачивать файлы