2 сезон

iTunes

1 сезон

1

iTunes

iTunes

iTunes

1 сезон

RePack

30

ИГРА 18+

pack

ВАЖНО

!!Акция!!

Alien_RageХит недели

RePack

MK11
pack

Забери бонус

RePack

jed

!!Акция!!

Alien_Rage

RePack

fifa19

RePack

Assassins Creed: Odyssey

RePack

NEED FOR SPEED™ PAYBACK

4 сезон

9 сезон

Бесстыжие 9 сезон

Все сериалы

все сериалы на PB.wtf

RePack

FAR CRY 5
  

Работорговля / Skin Trade (Экачай Уэкронгтам ) [2014, боевик, триллер, криминал, BDRip-AVC, Любительский (двухголосый)[ColdFilm] pb.wtf

Работорговля через торрент pb.wtf

Размер: 1.46 GB | Добавлен: 5 лет 5 мес. назад | Торрент скачан:266 раз
Скачать  

13-05-2015 14:05 Работорговля Скачать торрент  


Работорговля / Skin Trade
«Blood for blood»

ИНФОРМАЦИЯ:
Год выпуска:2014
Страна: Таиланд, Канада, США
Жанр: боевик, триллер, криминал
Продолжительность: 01:35:48
Перевод: Любительский (двухголосый)[ColdFilm]
Субтитры: английские,
Режиссер: Экачай Уэкронгтам

В Ролях:


Дольф Лундгрен (Nick), Тони Джа (Tony Vitayakul), Майкл Джей Уайт (Reed), Рон Перлман (Viktor), Селина Жаде (Min), Питер Уэллер (Costello), Мэттью Джеймс Райдер (Pongchai), Сахайак Бунсанакит (Kong), Майк Допуд (Goran), Лео Рано (Janko), Дэвид Вестерман (Ivan), Майкл Джи Шелби (Andre)

Описание:
Подпольная, теневая торговля, чёрный рынок - синонимы одной из острейших и наболевших проблем современного общества. Но сбыт человеческих органов - ещё более страшная реальность, с которой сталкивается герой столь непростой истории. Полицейский-детектив расследует дело о похищении и вероятности продажи «на органы» одной девушки.
Распутывая клубок гениально спланированного преступления, он лицом к лицу сталкивается с целой подпольной системой, рынком рабов, в котором свои заправилы и боссы являются вершителями судеб сотен и тысяч невинных и беззащитных. Приоткрыв завесу над кошмаром во плоти, простому копу придётся вступить в неравную борьбу с представителями рынка, в борьбу, из которой практически невозможно выйти победителем...

  • Мировая премьера:7 ноября 2014

    ТЕХ.ДАННЫЕ:
    Качество: BDRip-AVC
    Формат: MKV
    Видео кодек: AVC
    Аудио кодек: AC3
    Видео: AVC, 1024x424 (2.40:1), 2000 kbps, 23,976 fps, 0,192 bpp
    Аудио: русский / AC3 / 2.0 / 48 kHz / 192 kbps / 16 bit ||
    Навигация по главам: есть



    Код:

    General
    Unique ID                                : 225124281122478706160534354899603404011 (0xA95D5C03189BF0DC8905A1AD3899B4EB)
    Complete name                            : D:\Торенты\Pabotorgovlia.2014.L2.BDRip.(AVC).mkv
    Format                                   : Matroska
    Format version                           : Version 4 / Version 2
    File size                                : 1.46 GiB
    Duration                                 : 1h 35mn
    Overall bit rate                         : 2 180 Kbps
    Encoded date                             : UTC 2015-05-13 13:27:18
    Writing application                      : mkvmerge v7.8.0 ('River Man') 64bit built on Mar 27 2015 16:31:37
    Writing library                          : libebml v1.3.1 + libmatroska v1.4.2

    Video
    ID                                       : 1
    Format                                   : AVC
    Format/Info                              : Advanced Video Codec
    Format profile                           : High@L4.1
    Format settings, CABAC                   : Yes
    Format settings, ReFrames                : 2 frames
    Codec ID                                 : V_MPEG4/ISO/AVC
    Duration                                 : 1h 35mn
    Bit rate                                 : 2 000 Kbps
    Width                                    : 1 024 pixels
    Height                                   : 424 pixels
    Display aspect ratio                     : 2.40:1
    Original display aspect ratio            : 2.40:1
    Frame rate mode                          : Variable
    Frame rate                               : 23.976 fps
    Standard                                 : Component
    Color space                              : YUV
    Chroma subsampling                       : 4:2:0
    Bit depth                                : 8 bits
    Scan type                                : Progressive
    Bits/(Pixel*Frame)                       : 0.192
    Stream size                              : 1.30 GiB (89%)
    Writing library                          : x264 core 144 r2525
    Encoding settings                        : cabac=1 / ref=2 / deblock=1:-3:-3 / analyse=0x3:0x133 / me=hex / subme=6 / psy=1 / psy_rd=1.00:0.10 / mixed_ref=0 / me_range=16 / chroma_me=1 / trellis=1 / 8x8dct=1 / cqm=0 / deadzone=21,11 / fast_pskip=1 / chroma_qp_offset=-3 / threads=6 / lookahead_threads=1 / sliced_threads=0 / nr=0 / decimate=1 / interlaced=0 / bluray_compat=0 / constrained_intra=0 / bframes=3 / b_pyramid=0 / b_adapt=1 / b_bias=0 / direct=3 / weightb=0 / open_gop=0 / weightp=1 / keyint=10 / keyint_min=6 / scenecut=40 / intra_refresh=0 / rc_lookahead=30 / rc=2pass / mbtree=1 / bitrate=2000 / ratetol=1.0 / qcomp=0.60 / qpmin=10 / qpmax=69 / qpstep=4 / cplxblur=20.0 / qblur=0.5 / vbv_maxrate=2000 / vbv_bufsize=24000 / nal_hrd=none / filler=0 / ip_ratio=1.40 / aq=3:1.00
    Default                                  : Yes
    Forced                                   : No

    Audio
    ID                                       : 2
    Format                                   : AC-3
    Format/Info                              : Audio Coding 3
    Mode extension                           : CM (complete main)
    Codec ID                                 : A_AC3
    Duration                                 : 1h 35mn
    Bit rate mode                            : Constant
    Bit rate                                 : 192 Kbps
    Channel(s)                               : 2 channels
    Channel positions                        : Front: L R
    Sampling rate                            : 48.0 KHz
    Bit depth                                : 16 bits
    Compression mode                         : Lossy
    Delay relative to video                  : -42ms
    Stream size                              : 132 MiB (9%)
    Language                                 : Russian
    Default                                  : Yes
    Forced                                   : No

    Text
    ID                                       : 3
    Format                                   : UTF-8
    Codec ID                                 : S_TEXT/UTF8
    Codec ID/Info                            : UTF-8 Plain Text
    Language                                 : English
    Default                                  : No
    Forced                                   : No

    Menu
    00:00:00.000                             : en:1
    00:03:15.000                             : en:2
    00:11:08.000                             : en:3
    00:18:40.000                             : en:4
    00:23:27.000                             : en:5
    00:29:37.000                             : en:6
    00:34:53.000                             : en:7
    00:39:44.000                             : en:8
    00:47:12.000                             : en:9
    00:50:53.000                             : en:10
    00:55:48.000                             : en:11
    01:01:09.000                             : en:12
    01:06:21.000                             : en:13
    01:14:04.000                             : en:14
    01:20:46.000                             : en:15
    01:28:28.000                             : en:16

    Скриншоты:


    © Оформление by Ворон
    pb.wtf



  • Скачать Работорговля через торрент http://s019.radikal.ru/i628/1505/3d/3e96b595640e.png Скачать фильм Работорговля через торрент бесплантно в хорошем качестве Описание: Подпольная, теневая торговля, чёрный рынок - синонимы одной из острейших и наболевших проблем современного общества. Но сбыт ... 10 10 5
    Торрент: Зарегистрирован [2015-05-13 14:05] · скачан: 266 раз
    Статус: √ проверено
    Размер: 1.46 GB
    Как cкачать? Как скачать Работорговля через торрент | qTorrent

    % Раздел Тема Автор DL S | L
    Фильмы 2014 [DVDrip, WEB-DLRip, HDrip] [ 1.46 GB ] Работорговля / Skin Trade [2014 BDRip] MVO [Канал Че!] Twi7ter Скачать
    9 | 0
    Фильмы 2014 [DVDrip, WEB-DLRip, HDrip] [ 1.46 GB ] Работорговля / Skin Trade [2014 HDRip] [MVO] killermax2013 Скачать
    1 | 0
    Фильмы 2014 (Звук TS, Cam, VO, DVO) [ 745 MB ] Работорговля / Skin Trade [2014 HDRip] DVO [ColdFilm] неАлексей Скачать
    2 | 1
    Фильмы с авторской озвучкой [ 1.46 GB ] Работорговля / Skin Trade [2014 BDRip] [AVO] killermax2013 Скачать
    1 | 0
    Фильмы [HD 720p, 1080p] (Звук Cam, VO, DVO) [ 5.75 GB ] Работорговля / Skin Trade [2014 BDRip 720p Любительский [ColdFilm] Ворон Скачать
    1 | 0

    28-11-2019 20:33  

    Отключить всю рекламу на сайте

    15-05-2015 12:12 Работорговля Скачать торрент  

    бюджет $9 000 000
    сборы в США $162
    Посмеялся :rofle:pb.wtf



    18-05-2015 05:03 Работорговля Скачать торрент  

    АДольф Лундгрен, всё понятно :this: ))))pb.wtf



      Дорогой пользователь! Огромная просьба, поблагодарите релизера, оцените раздачу и оставьте свои комментарий, если Вы скачали Работорговля через торрент бесплатно! Внесите свою лепту в развитие PiratBit!
      Комментировать посты могут только пользователи прошедшие не сложную регистрацию
      Показать сообщения:    

      Работорговля через торрент
      Скачать бесплатно Работорговля
      Работорговля скачать торрент
      Работорговля смотреть онлайн
      Cкачать фильм Работорговля бесплатно
      Работорговля скачать торрент в хорошем качестве
      Работорговля смотреть онлайн бесплатно в хорошем качестве


      Вы не можете начинать темы
      Вы не можете отвечать на сообщения
      Вы не можете редактировать свои сообщения
      Вы не можете удалять свои сообщения
      Вы не можете голосовать в опросах
      Вы не можете прикреплять файлы к сообщениям
      Вы можете скачивать файлы