Ссылка на приватное зеркало нашего сайта всего за 1$. Внимание количество ограничено!!!

2 сезон

iTunes

1 сезон

1

2 сезон

2 сезон

iTunes

1 сезон

RePack

30

Новинка

ВАЖНО

ИГРА 18+

pack

RePack

MK11
pack

Забери бонус

RePack

jed

!!Акция!!

Alien_Rage

RePack

fifa19

RePack

Assassins Creed: Odyssey

RePack

NEED FOR SPEED™ PAYBACK

4 сезон

9 сезон

Бесстыжие 9 сезон

Все сериалы

все сериалы на PB.wtf

RePack

FAR CRY 5
  

Работорговля / Skin Trade (Экачай Уэкронгтам ) [2014, боевик, триллер, криминал, BDRip 720p, Любительский (двухголосый) [ColdFilm] pb.wtf

Работорговля через торрент pb.wtf

Размер: 5.75 GB | Добавлен: 5 лет 6 мес. назад | Торрент скачан:113 раз
Скачать  

13-05-2015 14:09 Работорговля Скачать торрент  


Работорговля / Skin Trade
«Blood for blood»

ИНФОРМАЦИЯ:
Год выпуска:2014
Страна: Таиланд, Канада, США
Жанр: боевик, триллер, криминал
Продолжительность: 01:35:48
Перевод: Любительский (двухголосый) [ColdFilm]
Субтитры: английские,
Режиссер: Экачай Уэкронгтам

В Ролях:


Дольф Лундгрен (Nick), Тони Джа (Tony Vitayakul), Майкл Джей Уайт (Reed), Рон Перлман (Viktor), Селина Жаде (Min), Питер Уэллер (Costello), Мэттью Джеймс Райдер (Pongchai), Сахайак Бунсанакит (Kong), Майк Допуд (Goran), Лео Рано (Janko), Дэвид Вестерман (Ivan), Майкл Джи Шелби (Andre)

Описание:
Подпольная, теневая торговля, чёрный рынок - синонимы одной из острейших и наболевших проблем современного общества. Но сбыт человеческих органов - ещё более страшная реальность, с которой сталкивается герой столь непростой истории. Полицейский-детектив расследует дело о похищении и вероятности продажи «на органы» одной девушки.
Распутывая клубок гениально спланированного преступления, он лицом к лицу сталкивается с целой подпольной системой, рынком рабов, в котором свои заправилы и боссы являются вершителями судеб сотен и тысяч невинных и беззащитных. Приоткрыв завесу над кошмаром во плоти, простому копу придётся вступить в неравную борьбу с представителями рынка, в борьбу, из которой практически невозможно выйти победителем...

  • Мировая премьера:7 ноября 2014

    ТЕХ.ДАННЫЕ:
    Качество: BDRip 720p
    Формат: MKV
    Видео кодек: AVC
    Аудио кодек: AC3, DTS
    Видео: AVC, 1280x528 (2.40:1), 6886 kbps, 23,976 fps, 0,425 bpp
    Аудио №1: русский / AC3 / 2.0 / 48 kHz / 192 kbps / 16 bit ||
    Аудио №2: английский / DTS / 5.1 / 48 kHz / 1510 kbps / 24 bit
    Навигация по главам: есть



    Код:

    General
    Unique ID                                : 233700589510048142676934550699762772143 (0xAFD118A9771D4BE39BEF05D214C3E8AF)
    Complete name                            : D:\Торенты\Pab0t0Pg0BLia.2014.L2.BDRip.720p.mkv
    Format                                   : Matroska
    Format version                           : Version 4 / Version 2
    File size                                : 5.75 GiB
    Duration                                 : 1h 35mn
    Overall bit rate                         : 8 589 Kbps
    Encoded date                             : UTC 2015-05-12 15:25:50
    Writing application                      : mkvmerge v6.5.0 ('Isn't she lovely') built on Oct 20 2013 12:50:05
    Writing library                          : libebml v1.3.0 + libmatroska v1.4.1

    Video
    ID                                       : 1
    Format                                   : AVC
    Format/Info                              : Advanced Video Codec
    Format profile                           : High@L4.1
    Format settings, CABAC                   : Yes
    Format settings, ReFrames                : 11 frames
    Codec ID                                 : V_MPEG4/ISO/AVC
    Duration                                 : 1h 35mn
    Bit rate                                 : 6 886 Kbps
    Width                                    : 1 280 pixels
    Height                                   : 528 pixels
    Display aspect ratio                     : 2.40:1
    Frame rate                               : 23.976 fps
    Color space                              : YUV
    Chroma subsampling                       : 4:2:0
    Bit depth                                : 8 bits
    Scan type                                : Progressive
    Bits/(Pixel*Frame)                       : 0.425
    Stream size                              : 4.49 GiB (78%)
    Writing library                          : x264 core 146 r2538kMod 121396c
    Encoding settings                        : cabac=1 / ref=11 / deblock=1:-3:-3 / analyse=0x3:0x113 / me=umh / subme=9 / psy=1 / fade_compensate=0.00 / psy_rd=1.05:0.00 / mixed_ref=1 / me_range=24 / chroma_me=1 / trellis=1 / 8x8dct=1 / cqm=0 / deadzone=21,11 / fast_pskip=1 / chroma_qp_offset=-2 / threads=12 / lookahead_threads=2 / sliced_threads=0 / nr=0 / decimate=0 / interlaced=0 / bluray_compat=0 / constrained_intra=0 / fgo=0 / bframes=8 / b_pyramid=2 / b_adapt=2 / b_bias=0 / direct=3 / weightb=1 / open_gop=0 / weightp=2 / keyint=250 / keyint_min=23 / scenecut=40 / intra_refresh=0 / rc_lookahead=0 / rc=2pass / mbtree=0 / bitrate=6886 / ratetol=1.0 / qcomp=0.65 / qpmin=0 / qpmax=69 / qpstep=4 / cplxblur=20.0 / qblur=0.5 / vbv_maxrate=62500 / vbv_bufsize=78125 / nal_hrd=none / filler=0 / ip_ratio=1.30 / pb_ratio=1.20 / aq=1:0.75
    Language                                 : English
    Default                                  : Yes
    Forced                                   : No
    Matrix coefficients                      : BT.709-5, BT.1361, IEC 61966-2-4 709, SMPTE RP177

    Audio #1
    ID                                       : 2
    Format                                   : AC-3
    Format/Info                              : Audio Coding 3
    Mode extension                           : CM (complete main)
    Codec ID                                 : A_AC3
    Duration                                 : 1h 35mn
    Bit rate mode                            : Constant
    Bit rate                                 : 192 Kbps
    Channel(s)                               : 2 channels
    Channel positions                        : Front: L R
    Sampling rate                            : 48.0 KHz
    Bit depth                                : 16 bits
    Compression mode                         : Lossy
    Stream size                              : 132 MiB (2%)
    Language                                 : Russian
    Default                                  : Yes
    Forced                                   : No

    Audio #2
    ID                                       : 3
    Format                                   : DTS
    Format/Info                              : Digital Theater Systems
    Codec ID                                 : A_DTS
    Duration                                 : 1h 35mn
    Bit rate mode                            : Constant
    Bit rate                                 : 1 510 Kbps
    Channel(s)                               : 6 channels
    Channel positions                        : Front: L C R, Side: L R, LFE
    Sampling rate                            : 48.0 KHz
    Bit depth                                : 24 bits
    Compression mode                         : Lossy
    Stream size                              : 1.01 GiB (18%)
    Language                                 : English
    Default                                  : No
    Forced                                   : No

    Text
    ID                                       : 4
    Format                                   : UTF-8
    Codec ID                                 : S_TEXT/UTF8
    Codec ID/Info                            : UTF-8 Plain Text
    Language                                 : English
    Default                                  : No
    Forced                                   : No

    Menu
    00:00:00.000                             : en:1
    00:03:15.000                             : en:2
    00:11:08.000                             : en:3
    00:18:40.000                             : en:4
    00:23:27.000                             : en:5
    00:29:37.000                             : en:6
    00:34:53.000                             : en:7
    00:39:44.000                             : en:8
    00:47:12.000                             : en:9
    00:50:53.000                             : en:10
    00:55:48.000                             : en:11
    01:01:09.000                             : en:12
    01:06:21.000                             : en:13
    01:14:04.000                             : en:14
    01:20:46.000                             : en:15
    01:28:28.000                             : en:16

    Скриншоты:


    © Оформление by Ворон
    pb.wtf



  • Скачать Работорговля через торрент http://pic.kartinco.top/images/6/ordi9.jpg Скачать фильм Работорговля через торрент бесплантно в хорошем качестве Описание: Подпольная, теневая торговля, чёрный рынок - синонимы одной из острейших и наболевших проблем современного общества. Но сбыт ... 10 10 7
    Торрент: Зарегистрирован [2015-05-13 14:09] · скачан: 113 раз
    Статус: √ проверено
    Размер: 5.75 GB
    Как cкачать? Как скачать Работорговля через торрент | qTorrent

    % Раздел Тема Автор DL S | L
    Фильмы 2014 [DVDrip, WEB-DLRip, HDrip] [ 1.46 GB ] Работорговля / Skin Trade [2014 BDRip] MVO [Канал Че!] Twi7ter Скачать
    9 | 2
    Фильмы 2014 [DVDrip, WEB-DLRip, HDrip] [ 1.46 GB ] Работорговля / Skin Trade [2014 HDRip] [MVO] killermax2013 Скачать
    2 | 0
    Фильмы 2014 (Звук TS, Cam, VO, DVO) [ 745 MB ] Работорговля / Skin Trade [2014 HDRip] DVO [ColdFilm] неАлексей Скачать
    1 | 0
    Фильмы с авторской озвучкой [ 1.46 GB ] Работорговля / Skin Trade [2014 BDRip] [AVO] killermax2013 Скачать
    1 | 0
    Фильмы 2014 (Звук TS, Cam, VO, DVO) [ 1.46 GB ] Работорговля / Skin Trade [2014 BDRip-AVC Любительский [ColdFilm] Ворон Скачать
    1 | 0

    28-11-2019 20:33  

    Отключить всю рекламу на сайте

    13-05-2015 15:46 Работорговля Скачать торрент  

    Первая фотка на скриншоте - шикарная.. я бы тоже так подержался.. :sarcastic_blum:pb.wtf



      Дорогой пользователь! Огромная просьба, поблагодарите релизера, оцените раздачу и оставьте свои комментарий, если Вы скачали Работорговля через торрент бесплатно! Внесите свою лепту в развитие PiratBit!
      Комментировать посты могут только пользователи прошедшие не сложную регистрацию
      Показать сообщения:    

      Работорговля через торрент
      Скачать бесплатно Работорговля
      Работорговля скачать торрент
      Работорговля смотреть онлайн
      Cкачать фильм Работорговля бесплатно
      Работорговля скачать торрент в хорошем качестве
      Работорговля смотреть онлайн бесплатно в хорошем качестве


      Вы не можете начинать темы
      Вы не можете отвечать на сообщения
      Вы не можете редактировать свои сообщения
      Вы не можете удалять свои сообщения
      Вы не можете голосовать в опросах
      Вы не можете прикреплять файлы к сообщениям
      Вы можете скачивать файлы