Ссылка на приватное зеркало нашего сайта всего за 1$. Внимание количество ограничено!!!

2 сезон

iTunes

1 сезон

1

2 сезон

2 сезон

iTunes

1 сезон

RePack

30

Новинка

ВАЖНО

ИГРА 18+

pack

RePack

MK11
pack

Забери бонус

RePack

jed

!!Акция!!

Alien_Rage

RePack

fifa19

RePack

Assassins Creed: Odyssey

RePack

NEED FOR SPEED™ PAYBACK

4 сезон

9 сезон

Бесстыжие 9 сезон

Все сериалы

все сериалы на PB.wtf

RePack

FAR CRY 5
  

Мировая война мертвецов: Восстание павших / World War Dead: Rise of the Fallen (Фредди Хаттон-Миллс , Барт Располи ) [2015, ужасы, HDRip, VO] [Ворон] pb.wtf

Мировая война мертвецов: Восстание павших через торрент pb.wtf

Размер: 1.37 GB | Добавлен: 5 лет 6 мес. назад | Торрент скачан:333 раза
Скачать  

14-05-2015 11:28 Мировая война мертвецов: Восстание павших Скачать торрент  


Мировая война мертвецов: Восстание павших / World War Dead: Rise of the Fallen


ИНФОРМАЦИЯ:
Год выпуска:2015
Страна: Великобритания
Жанр: ужасы
Продолжительность: 01:20:24
Перевод: Любительский (одноголосый) [Ворон]
Режиссер: Фредди Хаттон-Миллс , Барт Располи

В Ролях:


Кейси Барнфилд (Amanda), Венди Гленн (Emma), Фил Барантини (Liam), Рэй Пантаки (Marcus), Eva Solveig (Joanna), Samuel Vaughan (Zombie), Давид Манганелли (Zombie), Бен Шафик (Daz), Марко Гамбино (Strange Man), Ovidiu Lapusneanu (Zombie), Robert Bladen (Brian), Kyle Frank (Zombie)

Описание:
Группа начинающих кинодокументалистов рассказывает о забытых страницах истории Первой Мировой войны. Но эти "страницы" восстают и напоминают о себе полчищами оживших мертвецов


ТЕХ.ДАННЫЕ:
Качество: HDRip
Формат: AVI
Видео кодек: XviD
Аудио кодек: AC3, MP3
Видео: XviD, 720x400 (16:9), 2015 kbps, 23,976 fps, 0,278 bpp
Аудио №1: MP3 / 2.0 / 48 kHz / 256 kbps / Russian
Аудио №2: AC3 / 2.0 / 48 kHz / 160 kbps / English



Код:

General
Complete name                            : D:\Торенты\Mirovaya_voyna_mertvecov.HDRip.1400mb.avi
Format                                   : AVI
Format/Info                              : Audio Video Interleave
File size                                : 1.37 GiB
Duration                                 : 1h 20mn
Overall bit rate                         : 2 445 Kbps
Writing application                      : VirtualDubModRus 1.5.10.2 (build 2542/release)
Writing library                          : VirtualDubMod build 2542/release

Video
ID                                       : 0
Format                                   : MPEG-4 Visual
Format profile                           : Advanced Simple@L5
Format settings, BVOP                    : 2
Format settings, QPel                    : No
Format settings, GMC                     : No warppoints
Format settings, Matrix                  : Default (H.263)
Muxing mode                              : Packed bitstream
Codec ID                                 : XVID
Codec ID/Hint                            : XviD
Duration                                 : 1h 20mn
Bit rate                                 : 2015 Kbps
Width                                    : 720 pixels
Height                                   : 400 pixels
Display aspect ratio                     : 16:9
Frame rate                               : 23.976 fps
Color space                              : YUV
Chroma subsampling                       : 4:2:0
Bit depth                                : 8 bits
Scan type                                : Progressive
Compression mode                         : Lossy
Bits/(Pixel*Frame)                       : 0.278
Stream size                              : 1.08 GiB (79%)
Writing library                          : XviD 66

Audio #1
ID                                       : 1
Format                                   : MPEG Audio
Format version                           : Version 1
Format profile                           : Layer 3
Mode                                     : Joint stereo
Codec ID                                 : 55
Codec ID/Hint                            : MP3
Duration                                 : 1h 20mn
Bit rate mode                            : Constant
Bit rate                                 : 256 Kbps
Channel(s)                               : 2 channels
Sampling rate                            : 48.0 KHz
Compression mode                         : Lossy
Stream size                              : 147 MiB (10%)
Alignment                                : Aligned on interleaves

Audio #2
ID                                       : 2
Format                                   : AC-3
Format/Info                              : Audio Coding 3
Mode extension                           : CM (complete main)
Codec ID                                 : 2000
Duration                                 : 1h 20mn
Bit rate mode                            : Constant
Bit rate                                 : 160 Kbps
Channel(s)                               : 2 channels
Channel positions                        : Front: L R
Sampling rate                            : 48.0 KHz
Bit depth                                : 16 bits
Compression mode                         : Lossy
Stream size                              : 92.0 MiB (7%)
Alignment                                : Split accross interleaves

Скриншоты:


© Оформление by Ворон
pb.wtf



Скачать Мировая война мертвецов: Восстание павших через торрент http://pic.kartinco.top/images/6/ordi9.jpg Скачать фильм Мировая война мертвецов: Восстание павших через торрент бесплантно в хорошем качестве Описание: Группа начинающих кинодокументалистов рассказывает о забытых страницах истории Первой Мировой войны. Но эти "страницы" восстают и ... 8.7 10 13
Торрент: Зарегистрирован [2015-05-14 11:28] · скачан: 333 раз
Статус: √ проверено
Размер: 1.37 GB
Как cкачать? Как скачать Мировая война мертвецов: Восстание павших через торрент | qTorrent



Последний раз редактировалось: Ворон (2015-05-14 11:58), всего редактировалось 1 раз

28-11-2019 20:33  

Отключить всю рекламу на сайте

14-05-2015 11:28 Мировая война мертвецов: Восстание павших Скачать торрент  

Смотреть всем sarcasticpb.wtf



14-05-2015 11:35 Мировая война мертвецов: Восстание павших Скачать торрент  

кто смотрел ? как фильмец?pb.wtf



14-05-2015 11:41 Мировая война мертвецов: Восстание павших Скачать торрент  

and26, Ну сначала надо скачать и потом еще посмотреть, а ты уже как фильм... Но в любом случае он стоит внимания, название очень громкое pb.wtf



14-05-2015 12:02 Мировая война мертвецов: Восстание павших Скачать торрент  

такая шляпа.pb.wtf



14-05-2015 14:42 Мировая война мертвецов: Восстание павших Скачать торрент  

фильм ваще вышак :rofle: :rofle: roflpb.wtf



08-06-2015 19:37 Мировая война мертвецов: Восстание павших Скачать торрент  

убийственное убийство насмерть :jest3:pb.wtf



    Дорогой пользователь! Огромная просьба, поблагодарите релизера, оцените раздачу и оставьте свои комментарий, если Вы скачали Мировая война мертвецов: Восстание павших через торрент бесплатно! Внесите свою лепту в развитие PiratBit!
    Комментировать посты могут только пользователи прошедшие не сложную регистрацию
    Показать сообщения:    

    Мировая война мертвецов: Восстание павших через торрент
    Скачать бесплатно Мировая война мертвецов: Восстание павших
    Мировая война мертвецов: Восстание павших скачать торрент
    Мировая война мертвецов: Восстание павших смотреть онлайн
    Cкачать фильм Мировая война мертвецов: Восстание павших бесплатно
    Мировая война мертвецов: Восстание павших скачать торрент в хорошем качестве
    Мировая война мертвецов: Восстание павших смотреть онлайн бесплатно в хорошем качестве


    Вы не можете начинать темы
    Вы не можете отвечать на сообщения
    Вы не можете редактировать свои сообщения
    Вы не можете удалять свои сообщения
    Вы не можете голосовать в опросах
    Вы не можете прикреплять файлы к сообщениям
    Вы можете скачивать файлы