Ссылка на приватное зеркало нашего сайта всего за 1$. Внимание количество ограничено!!!

2 сезон

iTunes

1 сезон

1

iTunes

iTunes

iTunes

1 сезон

RePack

30

ИГРА 18+

pack

ВАЖНО

!!Акция!!

Alien_RageХит недели

RePack

MK11
pack

Забери бонус

RePack

jed

!!Акция!!

Alien_Rage

RePack

fifa19

RePack

Assassins Creed: Odyssey

RePack

NEED FOR SPEED™ PAYBACK

4 сезон

9 сезон

Бесстыжие 9 сезон

Все сериалы

все сериалы на PB.wtf

RePack

FAR CRY 5
  

Солнечная аллея / Sonnenallee (Леандер Хаусманн) [1999, комедия, мелодрама, BDRip 720p] DVO pb.wtf

Солнечная аллея через торрент pb.wtf

Размер: 3.83 GB | Добавлен: 5 лет 5 мес. назад | Торрент скачан:16 раз
Скачать  

15-05-2015 08:57 Солнечная аллея Скачать торрент  


Название: Солнечная аллея
Оригинальное название: Sonnenallee
Страна: Германия
Жанр: комедия, мелодрама
Продолжительность: 01:29:11
Перевод: профессиональный двухголосый

Режиссёр: Леандер Хаусманн

В ролях: Александер Шеер, Александр Байер, Катарина Тальбах, Тереза Вайсбах, Детлев Бук, Хенри Хюбхен, Игнац Кирхнер, Роберт Штадлобер, Анника Кул, Елена Майснер

Описание: ГДР 70-х годов. Миха и его друзья живут возле разделяющей город Берлинской стены на восточной стороне Солнечной аллеи, той самой улицы, которая начинается в Западном, а заканчивается в Восточном Берлине. На востоке — участковые, агенты «штази» и партийные лозунги, на западе — бананы, порножурналы, диски «Rolling Stones» и нейлоновые колготки. Но Миху и его друзей не интересуют принципиальные разногласия между «пролетарским» востоком и «буржуазным» западом. Их волнуют лишь рок-музыка, выпивка и девчонки, особенно Мириам — несравненная и недоступная, способная одним своим появлением остановить уличное движение. Ради неё Миха готов на всё...



Качество: BDRip 720p Сравнение с исходником
Формат: MKV
Видео кодек: H.264
Аудио кодек: AC3
Видео: MPEG-4 AVC, 5640 Кбит/с, 1280x720, 23,976 кадра/с
Аудио 1: русский, AC3, 192 kbps, 2 ch, 48 kHz [профессиональный двухголосый, по заказу "Екатеринбург Арт"]
Аудио 2: немецкий, AC3, 192 kbps, 2 ch, 48 kHz [оригинал]
frame I:1025 Avg QP:21.71 size:126427
frame P:23877 Avg QP:22.73 size: 52437
frame B:103385 Avg QP:25.18 size: 23902

Общее
Уникальный идентификатор : 242657704764485484395754914740345224296 (0xB68E2C8A3AD6D858ADCEAA3178C7BC68)
Полное имя : D:VideoСолнечная аллея.1999.BDRip.720p.mkv
Формат : Matroska
Версия формата : Version 4 / Version 2
Размер файла : 3,83 Гбайт
Продолжительность : 1 ч. 29 м.
Общий поток : 6146 Кбит/сек
Название фильма : BDRip -- STarankov
Дата кодирования : UTC 2015-05-15 05:51:08
Программа кодирования : mkvmerge v7.9.0 ('Birds') 64bit
Библиотека кодирования : libebml v1.3.1 + libmatroska v1.4.2
DURATION : 01:29:10.624000000
NUMBER_OF_FRAMES : 167207
NUMBER_OF_BYTES : 128414976
_STATISTICS_WRITING_APP : mkvmerge v7.9.0 ('Birds') 64bit
_STATISTICS_WRITING_DATE_UTC : 2015-05-15 05:51:08
_STATISTICS_TAGS : BPS DURATION NUMBER_OF_FRAMES NUMBER_OF_BYTES

Видео
Идентификатор : 1
Формат : AVC
Формат/Информация : Advanced Video Codec
Профиль формата : High@L4.1
Параметр CABAC формата : Да
Параметр ReFrames формата : 9 кадров
Идентификатор кодека : V_MPEG4/ISO/AVC
Продолжительность : 1 ч. 29 м.
Битрейт : 5640 Кбит/сек
Ширина : 1280 пикселей
Высота : 720 пикселей
Соотношение сторон : 16:9
Режим частоты кадров : Постоянный
Частота кадров : 23,976 кадра/сек
Цветовое пространство : YUV
Субдискретизация насыщенности : 4:2:0
Битовая глубина : 8 бит
Тип развёртки : Прогрессивная
Бит/(Пиксели*Кадры) : 0.255
Размер потока : 3,51 Гбайт (92%)
Библиотека кодирования : x264 core 146 r2538 121396c
Настройки программы : cabac=1 / ref=9 / deblock=1:-1:-1 / analyse=0x3:0x113 / me=umh / subme=10 / psy=1 / psy_rd=1.00:0.15 / mixed_ref=1 / me_range=32 / chroma_me=1 / trellis=2 / 8x8dct=1 / cqm=0 / deadzone=21,11 / fast_pskip=1 / chroma_qp_offset=-3 / threads=6 / lookahead_threads=1 / sliced_threads=0 / nr=0 / decimate=1 / interlaced=0 / bluray_compat=0 / constrained_intra=0 / bframes=11 / b_pyramid=2 / b_adapt=2 / b_bias=0 / direct=1 / weightb=1 / open_gop=0 / weightp=2 / keyint=230 / keyint_min=23 / scenecut=40 / intra_refresh=0 / rc_lookahead=40 / rc=crf / mbtree=0 / crf=21.0 / qcomp=0.60 / qpmin=0 / qpmax=69 / qpstep=4 / vbv_maxrate=40000 / vbv_bufsize=50000 / crf_max=0.0 / nal_hrd=none / filler=0 / ip_ratio=1.40 / pb_ratio=1.30 / aq=1:1.00
Язык : German
Default : Да
Forced : Нет
DURATION : 01:29:10.637000000
NUMBER_OF_FRAMES : 128287
NUMBER_OF_BYTES : 3852702568
_STATISTICS_WRITING_APP : mkvmerge v7.9.0 ('Birds') 64bit
_STATISTICS_WRITING_DATE_UTC : 2015-05-15 05:51:08
_STATISTICS_TAGS : BPS DURATION NUMBER_OF_FRAMES NUMBER_OF_BYTES

Аудио #1
Идентификатор : 2
Формат : AC-3
Формат/Информация : Audio Coding 3
Расширение режима : CM (complete main)
Параметр Endianness формата : Big
Идентификатор кодека : A_AC3
Продолжительность : 1 ч. 29 м.
Вид битрейта : Постоянный
Битрейт : 192 Кбит/сек
Каналы : 2 канала
Расположение каналов : Front: L R
Частота : 48,0 КГц
Битовая глубина : 16 бит
Метод сжатия : С потерями
Размер потока : 122 Мбайт (3%)
Заголовок : DVO (по заказу "Екатеринбург Арт")
Язык : Russian
Default : Да
Forced : Нет

Аудио #2
Идентификатор : 3
Формат : AC-3
Формат/Информация : Audio Coding 3
Расширение режима : CM (complete main)
Параметр Endianness формата : Big
Идентификатор кодека : A_AC3
Продолжительность : 1 ч. 29 м.
Вид битрейта : Постоянный
Битрейт : 192 Кбит/сек
Каналы : 2 канала
Расположение каналов : Front: L R
Частота : 48,0 КГц
Битовая глубина : 16 бит
Метод сжатия : С потерями
Размер потока : 122 Мбайт (3%)
Заголовок : Original
Язык : German
Default : Нет
Forced : Нет
pb.wtf



Скачать Солнечная аллея через торрент http://i70.fastpic.ru/big/2015/0515/1f/e4545329a8fc3a87d6711f849cf9281f.jpg Скачать фильм Солнечная аллея через торрент бесплантно в хорошем качестве Описание: ГДР 70-х годов. Миха и его друзья живут возле разделяющей город Берлинской стены на восточной стороне Солнечной аллеи, той самой ... 10 10 1
Info! Золотая раздача, скачанное не засчитывается.
Торрент: Зарегистрирован [2015-05-15 08:57] · скачан: 16 раз
Статус: √ проверено
Размер: 3.83 GB
Как cкачать? Как скачать Солнечная аллея через торрент | qTorrent

% Раздел Тема Автор DL S | L
Фильмы [HD 720p, 1080p] (Хороший звук DUB, MVO) [ 10.92 GB ] Солнечная аллея / Sonnenallee [1999 BDRip 1080p] DVO msltel Скачать
1 | 0
Фильмы до 2000 г. [ 2.07 GB ] Солнечная аллея / Sonnenallee [1999 BDRip AVC] DVO msltel Скачать
1 | 0

28-11-2019 20:33  

Отключить всю рекламу на сайте

    Дорогой пользователь! Огромная просьба, поблагодарите релизера, оцените раздачу и оставьте свои комментарий, если Вы скачали Солнечная аллея через торрент бесплатно! Внесите свою лепту в развитие PiratBit!
    Комментировать посты могут только пользователи прошедшие не сложную регистрацию
    Показать сообщения:    

    Солнечная аллея через торрент
    Скачать бесплатно Солнечная аллея
    Солнечная аллея скачать торрент
    Солнечная аллея смотреть онлайн
    Cкачать фильм Солнечная аллея бесплатно
    Солнечная аллея скачать торрент в хорошем качестве
    Солнечная аллея смотреть онлайн бесплатно в хорошем качестве


    Вы не можете начинать темы
    Вы не можете отвечать на сообщения
    Вы не можете редактировать свои сообщения
    Вы не можете удалять свои сообщения
    Вы не можете голосовать в опросах
    Вы не можете прикреплять файлы к сообщениям
    Вы можете скачивать файлы