Ссылка на приватное зеркало нашего сайта всего за 1$. Внимание количество ограничено!!!

2 сезон

iTunes

1 сезон

1

iTunes

iTunes

iTunes

1 сезон

RePack

30

ИГРА 18+

pack

ВАЖНО

!!Акция!!

Alien_RageХит недели

RePack

MK11
pack

Забери бонус

RePack

jed

!!Акция!!

Alien_Rage

RePack

fifa19

RePack

Assassins Creed: Odyssey

RePack

NEED FOR SPEED™ PAYBACK

4 сезон

9 сезон

Бесстыжие 9 сезон

Все сериалы

все сериалы на PB.wtf

RePack

FAR CRY 5
  

Чистилище / Purgatorio (Пау Тейксидор ) [2014, ужасы, триллер, DVDRip, Любительский (одноголосый) pb.wtf

Чистилище через торрент pb.wtf

Размер: 1.4 GB | Добавлен: 5 лет 5 мес. назад | Торрент скачан:175 раз
Скачать  

15-05-2015 10:34 Чистилище Скачать торрент  


Чистилище / Purgatorio


ИНФОРМАЦИЯ:
Год выпуска:2014
Страна: Испания
Жанр: ужасы, триллер
Продолжительность: 01:19:08
Перевод: Любительский (одноголосый)
Режиссер: Пау Тейксидор

В Ролях:


Уна Чаплин (Marta), Сержи Мендес (Daniel), Андрес Гертрудикс (Luis), Ана Фернандес (Ana)

Описание:
Марта со своим мужем переселяется в новую квартиру недавно построенного дома. Только начали появляться новые соседи, но их еще мало, и она ни с одним из них еще не знакома. Мужа долго не будет, и все идет к тому, что эту ночь ей придется провести одной. Тишина, пустота и одиночество... Но вдруг раздается громкий стук в дверь. Марта открывает. На пороге стоит ее новая соседка со своим сыном и просит приютить мальчика на время ее отсутствия.

  • Мировая премьера:28 марта 2014

    ТЕХ.ДАННЫЕ:
    Качество: DVDRip
    Формат: AVI
    Видео кодек: XviD
    Аудио кодек: MP3
    Видео: XviD, 720x304 (2.35:1), 2062 kbps, 25 fps, 0,360 bpp
    Аудио №1: MP3 / 2.0 / 48 kHz / 224 kbps / VO
    Аудио №2: MP3 / 2.0 / 48 kHz / 224 kbps / Spanish



    Код:

    General
    Complete name                            : D:\Торенты\4istilizhe.2014.L1.DVDRip.avi
    Format                                   : AVI
    Format/Info                              : Audio Video Interleave
    File size                                : 1.40 GiB
    Duration                                 : 1h 19mn
    Overall bit rate                         : 2 526 Kbps
    Writing application                      : VirtualDubModRus 1.5.10.2 (build 2542/release)
    Writing library                          : VirtualDubMod build 2542/release

    Video
    ID                                       : 0
    Format                                   : MPEG-4 Visual
    Format profile                           : Simple@L5
    Format settings, BVOP                    : No
    Format settings, QPel                    : No
    Format settings, GMC                     : No warppoints
    Format settings, Matrix                  : Default (H.263)
    Codec ID                                 : XVID
    Codec ID/Hint                            : XviD
    Duration                                 : 1h 19mn
    Bit rate                                 : 2062 Kbps
    Width                                    : 720 pixels
    Height                                   : 304 pixels
    Display aspect ratio                     : 2.35:1
    Frame rate                               : 25.000 fps
    Color space                              : YUV
    Chroma subsampling                       : 4:2:0
    Bit depth                                : 8 bits
    Scan type                                : Progressive
    Compression mode                         : Lossy
    Bits/(Pixel*Frame)                       : 0.360
    Stream size                              : 1.09 GiB (78%)
    Writing library                          : XviD 64

    Audio #1
    ID                                       : 1
    Format                                   : MPEG Audio
    Format version                           : Version 1
    Format profile                           : Layer 3
    Mode                                     : Joint stereo
    Mode extension                           : MS Stereo
    Codec ID                                 : 55
    Codec ID/Hint                            : MP3
    Duration                                 : 1h 19mn
    Bit rate mode                            : Constant
    Bit rate                                 : 224 Kbps
    Channel(s)                               : 2 channels
    Sampling rate                            : 48.0 KHz
    Compression mode                         : Lossy
    Stream size                              : 127 MiB (9%)
    Alignment                                : Aligned on interleaves
    Writing library                          : LAME3.96

    Audio #2
    ID                                       : 2
    Format                                   : MPEG Audio
    Format version                           : Version 1
    Format profile                           : Layer 3
    Mode                                     : Joint stereo
    Mode extension                           : MS Stereo
    Codec ID                                 : 55
    Codec ID/Hint                            : MP3
    Duration                                 : 1h 19mn
    Bit rate mode                            : Constant
    Bit rate                                 : 224 Kbps
    Channel(s)                               : 2 channels
    Sampling rate                            : 48.0 KHz
    Compression mode                         : Lossy
    Stream size                              : 127 MiB (9%)
    Alignment                                : Aligned on interleaves
    Writing library                          : LAME3.98

    Скриншоты:


    © Оформление by Ворон
    pb.wtf



  • Скачать Чистилище через торрент http://pic.kartinco.top/images/6/ordi9.jpg Скачать фильм Чистилище через торрент бесплантно в хорошем качестве Описание: Марта со своим мужем переселяется в новую квартиру недавно построенного дома. Только начали появляться новые соседи, но их еще ... 8.8 10 5
    Торрент: Зарегистрирован [2015-05-15 10:34] · скачан: 175 раз
    Статус: T временная
    Размер: 1.4 GB
    Как cкачать? Как скачать Чистилище через торрент | qTorrent

    28-11-2019 20:33  

    Отключить всю рекламу на сайте

      Дорогой пользователь! Огромная просьба, поблагодарите релизера, оцените раздачу и оставьте свои комментарий, если Вы скачали Чистилище через торрент бесплатно! Внесите свою лепту в развитие PiratBit!
      Комментировать посты могут только пользователи прошедшие не сложную регистрацию
      Показать сообщения:    

      Чистилище через торрент
      Скачать бесплатно Чистилище
      Чистилище скачать торрент
      Чистилище смотреть онлайн
      Cкачать фильм Чистилище бесплатно
      Чистилище скачать торрент в хорошем качестве
      Чистилище смотреть онлайн бесплатно в хорошем качестве


      Вы не можете начинать темы
      Вы не можете отвечать на сообщения
      Вы не можете редактировать свои сообщения
      Вы не можете удалять свои сообщения
      Вы не можете голосовать в опросах
      Вы не можете прикреплять файлы к сообщениям
      Вы можете скачивать файлы