Всегда рабочее зеркало просто перед .vidak.icu напиши любое слово или цифру, Пример http://0ef.vidak.icu

>

7.4

iTunes

7.4

2 сезон

6.6

iTunes

1

7.4

2 сезон

7.2

iTunes

6.0

MVO

13

6.1

iTunes

8.3

Пиратка

30

ULTIMATE

pack

9.9

Лицензия

ВАЖНО

ИГРА 18+

pack

7.3

RePack

MK11

7.7

RePack

jed

7.8

RePack

fifa19

8.5

RePack

RDR2

RePack

NEED FOR SPEED™ PAYBACK

1 сезон

9 сезон

Бесстыжие 9 сезон

Все сериалы

все сериалы на PB.wtf

RePack

FAR CRY 5

Anonymous, добрый день, мы катастрофически не успеваем собрать деньги на оплату серверов, помогите нам пожалуйста 5,10,15р., для нас важна любая помощь . В качестве благодарности мы отключим Вам всю рекламу на сайте (укажите свой ник в строку Ваше имя)!

×
  
Magnet ссылка

Из машины / Ex Machina (Алекс Гарленд) [2015 г., фантастика, драма, HDRip, Авторский одноголосый закадровый "А. Матвеев"] pb.wtf

Из машины через торрент pb.wtf

Размер: 2.08 GB | Добавлен: 6 лет 8 мес. назад | Торрент скачан:127 раз
Смотреть онлайн Из машины | Скачать    Ребята, помогите собрать деньги на оплату серверов!!!

17-05-2015 08:38 Из машины Скачать торрент  

Из машины / Ex Machina
Год выпуска: 2015
Страна: Великобритания / DNA Films, Film4
Жанр: фантастика, драма
Продолжительность: 01:48:00
Перевод: Авторский одноголосый закадровый (А. Матвеев)

Режиссер: Алекс Гарленд



В ролях: Донал Глисон, Алисия Викандер, Оскар Айзек, Соноя Мидзуно, Кори Джонсон, Claire Selby, Симара А. Темплмен, Gana Bayarsaikhan, Тиффани Писани, Элина Алминас

Описание: В центре сюжета — молодой человек, которого нанимает миллиардер, сделавший состояние на высокотехнологичных разработках. Задача работника — провести неделю в удаленном местечке, тестируя женщину-робота с искусственным интеллектом.

Качество: HDRip
Формат: AVI
Видео кодек: XviD
Аудио кодек: AC3
Видео: 720x304 (2.37:1), 23.976 fps, XviD build 50 ~2301 kbps avg, 0.44 bit/pixel
Аудио: 48 kHz, AC3 Dolby Digital, 3/2 (L,C,R,l,r) + LFE ch, ~448 kbps
скриншот   скриншот   скриншот   скриншот   скриншот   скриншот  

Общее
Полное имя : F:\кино\Из машины.2015.HDRip.avi
Формат : AVI
Формат/Информация : Audio Video Interleave
Профиль формата : OpenDML
Размер файла : 2,08 Гбайт
Продолжительность : 1 ч. 48 м.
Общий поток : 2757 Кбит/сек
Программа кодирования : VirtualDubMod 1.5.10.3 | www.virtualdub-fr.org || (build 2550/release)
Библиотека кодирования : VirtualDubMod build 2550/release

Видео
Идентификатор : 0
Формат : MPEG-4 Visual
Профиль формата : Advanced Simple@L5
Параметр BVOP формата : 2
Параметр QPel формата : Нет
Параметр GMC формата : Без точки перехода
Параметр матрицы формата : Default (H.263)
Идентификатор кодека : XVID
Идентификатор кодека/Подсказка : XviD
Продолжительность : 1 ч. 48 м.
Битрейт : 2296 Кбит/сек
Ширина : 720 пикселей
Высота : 304 пикселя
Соотношение сторон : 2,35:1
Частота кадров : 23,976 кадра/сек
Цветовое пространство : YUV
Субдискретизация насыщенности : 4:2:0
Битовая глубина : 8 бит
Тип развёртки : Прогрессивная
Метод сжатия : С потерями
Бит/(Пиксели*Кадры) : 0.438
Размер потока : 1,73 Гбайт (83%)
Библиотека кодирования : XviD 1.2.1 (UTC 2008-12-04)

Аудио
Идентификатор : 1
Формат : AC-3
Формат/Информация : Audio Coding 3
Расширение режима : CM (complete main)
Параметр Endianness формата : Big
Идентификатор кодека : 2000
Продолжительность : 1 ч. 48 м.
Вид битрейта : Постоянный
Битрейт : 448 Кбит/сек
Каналы : 6 каналов
Расположение каналов : Front: L C R, Side: L R, LFE
Частота : 48,0 КГц
Битовая глубина : 16 бит
Метод сжатия : С потерями
Размер потока : 346 Мбайт (16%)
Выравнивание : Разделение по промежуткам
Продолжительность промежутка : 42 мс. (1,00 видеокадр)
Время предзагрузки промежутка : 500 мс.

pb.wtf



Скачать Из машины через торрент https://pic1.kartinco.top/images/10/5nnnz.jpg Скачать, смотреть онлайн Из машины бесплантно в хорошем качестве Описание: В центре сюжета — молодой человек, которого нанимает миллиардер, сделавший состояние на высокотехнологичных разработках. Задача ... 6.3 10 3
Торрент: Зарегистрирован [2015-05-17 08:38] · скачан: 127 раз
Статус: √ проверено
Размер: 2.08 GB
Как cкачать? Как скачать Из машины через торрент | UTorrent

% Раздел Тема Автор DL S | L
Фильмы [HD 720p, 1080p] (Хороший звук DUB, MVO) [ 12.7 GB ] Из машины / Ex Machina [2014 BDRip 1080p by msltel] DUB 2 x AVO msltel Скачать
1 | 0
Фильмы [HD 720p, 1080p] (Хороший звук DUB, MVO) [ 4.26 GB ] Из машины / Ex Machina [2014 BDRip 720p by msltel] DUB 2 x AVO msltel Скачать
1 | 0
Ultra HD (UHD: 2K, 4K, 8K) — видео сверхвысокой чёткости [ 59.2 GB ] Из машины / Ex Machina [2014 UHD Blu-Ray 2160p] sheker187 Скачать
1 | 0
Ultra HD (UHD: 2K, 4K, 8K) — видео сверхвысокой чёткости [ 60.22 GB ] Из машины / Ex Machina [2014 UHD BDRemux 2160p] DUB + 2xAVO sheker187 Скачать
1 | 0
Фильмы 2015 [DVDrip, WEB-DLRip, HDrip] [ 1.46 GB ] Из машины / Ex Machina [2015 BDRip-AVC] DUB potroks Скачать
2 | 0
Фильмы (BDRip, HDrip-AVC) (48-60 fps) [ 3.36 GB ] Из машины / Ex Machina [2014 BDRip-AVC 60fps ] от R.G. HD-Films Tiberiumsun69 Скачать
1 | 0
Фильмы 2015 [DVDrip, WEB-DLRip, HDrip] [ 1.37 GB ] Из машины / Ex Machina [2015 HDRip] DUB GEKADOL Скачать
1 | 0

28-11-2019 20:33  

Отключить всю рекламу на сайте

    Дорогой пользователь! Огромная просьба, поблагодарите релизера, оцените раздачу и оставьте свои комментарий, если Вы скачали Из машины через торрент бесплатно!
    Комментировать посты могут только пользователи прошедшие не сложную регистрацию
    Показать сообщения:    

    Из машины через торрент
    Скачать бесплатно Из машины
    Из машины скачать торрент
    Из машины смотреть онлайн
    Cкачать фильм Из машины бесплатно
    Из машины скачать торрент в хорошем качестве
    Из машины смотреть онлайн бесплатно в хорошем качестве


    Вы не можете начинать темы
    Вы не можете отвечать на сообщения
    Вы не можете редактировать свои сообщения
    Вы не можете удалять свои сообщения
    Вы не можете голосовать в опросах
    Вы не можете прикреплять файлы к сообщениям
    Вы можете скачивать файлы