Ссылка на приватное зеркало всего за 1$. Внимание количество ограничено!!!

iTunes

iTunes

iTunes

1

iTunes

iTunes

iTunes

iTunes

iTunes

30
pack

Новость дня

ВАЖНО

!!Акция!!

Alien_RageХит недели

RePack

Resident Evil 21

ИГРА 18+

pack

RePack

jed

!!Акция!!

Alien_Rage

RePack

fifa19

RePack

Assassins Creed: Odyssey

RePack

NEED FOR SPEED™ PAYBACK

4 сезон

9 сезон

Бесстыжие 9 сезон

Все сериалы

все сериалы на PB.wtf

RePack

FAR CRY 5
  

Неуловимые (Артем Аксененко ) [2015, приключения, комедия, криминал, WEB-DLRip] [iTunes] pb.wtf

Неуловимые через торрент pb.wtf

Размер: 1.37 GB | Добавлен: 5 лет назад | Торрент скачан:1989 раз
Скачать  

17-05-2015 10:28 Неуловимые Скачать торрент  


Неуловимые
«Молодые изменят мир»

ИНФОРМАЦИЯ:
Год выпуска:2015
Страна: Россия
Жанр: приключения, комедия, криминал
Продолжительность: 01:26:17
Перевод: Не требуется [iTunes]
Режиссер: Артем Аксененко

В Ролях:


Александра Бортич (Кира), Иван Шахназаров (Артем), Илья Маланин (Федя), Анвар Халилулаев (Женя), Денис Шведов (Сергей Полянский), Евгений Мундум (Борис), Джемал Тетруашвили (Дмитрий Сафонов), Ксения Баскакова (блондинка в кафе), Павел Юлку (автохам), Александр Сазонов (врач Насти), Светлана Тульская (референт Полянского), Надежда Азоркина (секретарь Полянского)

Описание:
Ночью в центре Москвы сбита девушка, ей срочно нужна сложнейшая операция. Ее подруга Кира находит виновника, наглого и циничного олигарха Сергея Полянского, который отказывается признать свою вину и помочь пострадавшей. Ему плевать, у него все схвачено. В отчаянии Кира обращается за помощью к трем парням симпатизирующим ей - быковатому Феде, самоуверенному красавчику Артему и компьютерному гению Жене. Парни заключают между собой пакт - «поможем девушке, накажем негодяя, а потом решим, кто станет ее парнем».


ТЕХ.ДАННЫЕ:
Качество: WEB-DLRip
Формат: AVI
Видео кодек: XviD
Аудио кодек: AC3
Видео: XviD, 720x304 (2.35:1), 1784 kbps, 25 fps, 0,326 bpp
Аудио: AC3 / 2.0 / 48 kHz / 384 kbps / 16 bit



Код:

General
Complete name                            : D:\Торенты\NeUl0v1m1E.2015.O.WEB-DLRip.1400Mb.avi
Format                                   : AVI
Format/Info                              : Audio Video Interleave
File size                                : 1.37 GiB
Duration                                 : 1h 26mn
Overall bit rate                         : 2 268 Kbps
Writing application                      : VirtualDubMod 1.5.10.2 (build 2540/release)
Writing library                          : VirtualDubMod build 2540/release

Video
ID                                       : 0
Format                                   : MPEG-4 Visual
Format profile                           : Advanced Simple@L5
Format settings, BVOP                    : 2
Format settings, QPel                    : No
Format settings, GMC                     : No warppoints
Format settings, Matrix                  : Default (MPEG)
Codec ID                                 : XVID
Codec ID/Hint                            : XviD
Duration                                 : 1h 26mn
Bit rate                                 : 1 785 Kbps
Width                                    : 720 pixels
Height                                   : 304 pixels
Display aspect ratio                     : 2.35:1
Frame rate                               : 25.000 fps
Color space                              : YUV
Chroma subsampling                       : 4:2:0
Bit depth                                : 8 bits
Scan type                                : Progressive
Compression mode                         : Lossy
Bits/(Pixel*Frame)                       : 0.326
Stream size                              : 1.08 GiB (79%)
Writing library                          : XviD 1.2.1 (UTC 2008-12-04)

Audio
ID                                       : 1
Format                                   : AC-3
Format/Info                              : Audio Coding 3
Mode extension                           : CM (complete main)
Codec ID                                 : 2000
Duration                                 : 1h 26mn
Bit rate mode                            : Constant
Bit rate                                 : 384 Kbps
Channel(s)                               : 2 channels
Channel positions                        : Front: L R
Sampling rate                            : 48.0 KHz
Bit depth                                : 16 bits
Compression mode                         : Lossy
Stream size                              : 237 MiB (17%)
Alignment                                : Split accross interleaves

Скриншоты:


© Оформление by Ворон
pb.wtf



Скачать Неуловимые через торрент http://pic.kartinco.top/images/6/ordi9.jpg Скачать фильм Неуловимые через торрент бесплантно в хорошем качестве Описание: Ночью в центре Москвы сбита девушка, ей срочно нужна сложнейшая операция. Ее подруга Кира находит виновника, наглого и циничного ... 9.2 10 47
Info! Золотая раздача, скачанное не засчитывается.
Торрент: Зарегистрирован [2015-05-17 10:28] · скачан: 1 989 раз
Статус: √ проверено
Размер: 1.37 GB
Как cкачать? Как скачать Неуловимые через торрент | qTorrent

% Раздел Тема Автор DL S | L
Русские порно фильмы [ 3.1 GB ] Неуловимые мстители [2004 Feature Parody Anal Sex Lesbians DVD-Remux] Леонид Ильич Скачать
1 | 0
Русские порно фильмы [ 1.36 GB ] Неуловимые мстители снова в бою [2004 Feature Parody Young DVDRip] Скорпион1976 Скачать
1 | 0
Наши сериалы [ 5.24 GB ] Неуловимые / Серия 1 - 8 из 8 / [2018 SATRip] oleg8 Скачать
1 | 0
Наши сериалы [ 18.29 GB ] Неуловимые / Сезон: 1 / Серии: 1-8 из 8 [2018 HDTV 1080p] [Русский] R.G.Generalfilm White Smoke Скачать
1 | 0
Наши сериалы [ 5.09 GB ] Неуловимые / Сезон: 1 / Серии: 1-8 из 8 [2018 WEB-DLRip] bober100 Скачать
1 | 0
Наши сериалы [ 14.6 GB ] Неуловимые / Сезон: 1 / Серии: 1-8 из 8 [2018 WEB-DL 1080p] bober100 Скачать
1 | 0
T Наши фильмы (HD, WEB-DL 720p, 1080p) [ 3.01 GB ] Неуловимые: Джекпот [2016 WEB-DL 1080p] -Lexx- Скачать
1 | 0

28-11-2019 20:33  

Отключить всю рекламу на сайте

18-05-2015 03:03 Неуловимые Скачать торрент  

Намек на олигарха Полонского что ли ...?pb.wtf



18-05-2015 12:36 Неуловимые Скачать торрент  

mackonya писал(а):

Намек на олигарха Полонского что ли ...?

от олигарха остались только посты в жж. так что не про него- все совпадения и намеки случайны))))))))pb.wtf



    Дорогой пользователь! Огромная просьба, поблагодарите релизера, оцените раздачу и оставьте свои комментарий, если Вы скачали Неуловимые через торрент бесплатно! Внесите свою лепту в развитие PiratBit!
    Комментировать посты могут только пользователи прошедшие не сложную регистрацию
    Показать сообщения:    

    Неуловимые через торрент
    Скачать бесплатно Неуловимые
    Неуловимые скачать торрент
    Неуловимые смотреть онлайн
    Cкачать фильм Неуловимые бесплатно
    Неуловимые скачать торрент в хорошем качестве
    Неуловимые смотреть онлайн бесплатно в хорошем качестве


    Вы не можете начинать темы
    Вы не можете отвечать на сообщения
    Вы не можете редактировать свои сообщения
    Вы не можете удалять свои сообщения
    Вы не можете голосовать в опросах
    Вы не можете прикреплять файлы к сообщениям
    Вы можете скачивать файлы