Ссылка на приватное зеркало всего за 1$. Внимание количество ограничено!!!

iTunes

iTunes

iTunes

1

iTunes

iTunes

iTunes

iTunes

iTunes

30
pack

$ от Little Big

ВАЖНО

!!Акция!!

Alien_RageХит недели

RePack

Resident Evil 21

ИГРА 18+

pack

RePack

jed

!!Акция!!

Alien_Rage

RePack

fifa19

RePack

Assassins Creed: Odyssey

RePack

NEED FOR SPEED™ PAYBACK

4 сезон

9 сезон

Бесстыжие 9 сезон

Все сериалы

все сериалы на PB.wtf

RePack

FAR CRY 5
  

Битва за Севастополь (Сергей Мокрицкий) [2015, Военный, драма, мелодрама, боевик, BDRip-AVC] [Лицензия] pb.wtf

Битва за Севастополь через торрент pb.wtf

Раздают: 1 [ 0 KB/s ]
Размер: 2.18 GB | Добавлен: 5 лет назад | Торрент скачан:1453 раза
Скачать  

17-05-2015 10:58 Битва за Севастополь Скачать торрент  

Битва за Севастополь
Год выпуска: 2015
Страна: Россия, Украина / Новые люди, Кинодел
Жанр: Военный, драма, мелодрама, боевик
Продолжительность: 02:02:49
Перевод: Оригинал [Blu-Ray]
Субтитры: Нет

Режиссер: Сергей Мокрицкий

В ролях: Юлия Пересильд, Евгений Цыганов, Олег Васильков, Никита Тарасов, Джоан Блэкэм, Полина Пахомова, Владимир Лилицкий, Анатолий Кот, Нателла Абелева-Таганова, Валерий Гришко, Сергей Барковский, Виталий Линецкий, Сергей Пускепалис, Геннадий Ченцов, Светлана Осадченко, Алла Сергийко, Станислав Боклан, Дмитрий Лаленков, Станислав Лесной, Сергей Сипливый

Описание: Одна из немногих кинолент посвященных женщинам на войне. История известной женщины-снайпера, принимавшей активное участие в обороне Севастополя. Уничтожив 309 фашистов, она покинула Севастополь, будучи серьезно раненой. После выздоровления оказалась в США с русской женской делегацией, ездила вместе с Элеонорой Рузвельт по Америке, убеждая открыть второй фронт.



Качество: BDRip-AVC
Формат: MKV
Видео кодек: H.264
Аудио кодек: AC3
Видео: 1056x440 (2,40:1), 24.000 fps, 2094 kbps, 0.188 bit/pixel
Аудио: 48 kHz, AC3 Dolby Digital, 3/2 (L,C,R,l,r) + LFE ch, 448.00 kbps

Релиз группы:
Автор рипа: potroks

Общее
Уникальный идентификатор : 182886470055199108642181068379834413149 (0x8996A72520708D40B450969A9F5DF05D)
Полное имя : Bitva.za.Sevastopol'2015.RUS.BDRip.x264.-HELLYWOOD.mkv
Формат : Matroska
Версия формата : Version 4 / Version 2
Размер файла : 2,18 Гбайт
Продолжительность : 2 ч. 2 м.
Общий поток : 2544 Кбит/сек
Название фильма : Битва за Севастополь (2015) - HELLYWOOD
Дата кодирования : UTC 2015-05-17 10:12:47
Программа кодирования : mkvmerge v5.9.0 ('On The Loose') built on Dec 15 2012 16:39:58
Библиотека кодирования : libebml v1.3.0 + libmatroska v1.4.0

Видео
Идентификатор : 1
Формат : AVC
Формат/Информация : Advanced Video Codec
Профиль формата : High@L4.1
Параметр CABAC формата : Да
Параметр ReFrames формата : 10 кадров
Идентификатор кодека : V_MPEG4/ISO/AVC
Продолжительность : 2 ч. 2 м.
Битрейт : 2094 Кбит/сек
Ширина : 1056 пикселей
Высота : 440 пикселей
Соотношение сторон : 2,40:1
Режим частоты кадров : Постоянный
Частота кадров : 24,000 кадра/сек
Цветовое пространство : YUV
Субдискретизация насыщенности : 4:2:0
Битовая глубина : 8 бит
Тип развёртки : Прогрессивная
Бит/(Пиксели*Кадры) : 0.188
Размер потока : 1,75 Гбайт (80%)
Заголовок : potroks
Библиотека кодирования : x264 core 146 r2538 121396c
Настройки программы : cabac=1 / ref=10 / deblock=1:-2:-2 / analyse=0x3:0x113 / me=umh / subme=11 / psy=1 / psy_rd=1.01:0.04 / mixed_ref=1 / me_range=48 / chroma_me=1 / trellis=2 / 8x8dct=1 / cqm=0 / deadzone=21,11 / fast_pskip=0 / chroma_qp_offset=-3 / threads=12 / lookahead_threads=2 / sliced_threads=0 / nr=0 / decimate=0 / interlaced=0 / bluray_compat=0 / constrained_intra=0 / bframes=11 / b_pyramid=2 / b_adapt=2 / b_bias=0 / direct=3 / weightb=1 / open_gop=0 / weightp=2 / keyint=250 / keyint_min=23 / scenecut=40 / intra_refresh=0 / rc_lookahead=60 / rc=2pass / mbtree=0 / bitrate=2094 / ratetol=1.0 / qcomp=0.72 / qpmin=0 / qpmax=69 / qpstep=4 / cplxblur=20.0 / qblur=0.5 / vbv_maxrate=14000 / vbv_bufsize=14000 / nal_hrd=none / filler=0 / ip_ratio=1.35 / pb_ratio=1.25 / aq=1:0.80
Язык : Russian
Default : Да
Forced : Нет

Аудио
Идентификатор : 2
Формат : AC-3
Формат/Информация : Audio Coding 3
Расширение режима : CM (complete main)
Параметр Endianness формата : Big
Идентификатор кодека : A_AC3
Продолжительность : 2 ч. 2 м.
Вид битрейта : Постоянный
Битрейт : 448 Кбит/сек
Каналы : 6 каналов
Расположение каналов : Front: L C R, Side: L R, LFE
Частота : 48,0 КГц
Битовая глубина : 16 бит
Метод сжатия : С потерями
Размер потока : 394 Мбайт (18%)
Заголовок : Original | DD 5.1 2 448 kbps - Blu-Ray
Язык : Russian
Default : Да
Forced : Нет

Меню
00:00:00.000 : en:(01)00:00:00:000
00:10:08.250 : en:(02)00:10:08:250
00:22:45.250 : en:(03)00:22:45:250
00:31:29.458 : en:(04)00:31:29:458
00:44:22.083 : en:(05)00:44:22:083
00:51:33.833 : en:(06)00:51:33:833
01:00:40.458 : en:(07)01:00:40:458
01:10:27.916 : en:(08)01:10:27:916
01:21:30.458 : en:(09)01:21:30:458
01:31:47.458 : en:(10)01:31:47:458
01:43:17.583 : en:(11)01:43:17:583
01:56:30.333 : en:(12)01:56:30:333
02:02:49.333 : en:(13)02:02:49:333

pb.wtf



Скачать Битва за Севастополь через торрент http://pic.kartinco.top/images/11/sp5bb.jpg Скачать фильм Битва за Севастополь через торрент бесплантно в хорошем качестве Описание: Одна из немногих кинолент посвященных женщинам на войне. История известной женщины-снайпера, принимавшей активное участие в ... 9.8 10 23
Info! Золотая раздача, скачанное не засчитывается.
Торрент: Зарегистрирован [2015-05-17 11:00] · скачан: 1 453 раз
Статус: √ проверено
Размер: 2.18 GB
Как cкачать? Как скачать Битва за Севастополь через торрент | qTorrent

% Раздел Тема Автор DL S | L
Наши фильмы (Blu-ray, BD-Remux, HDDVD) [ 27.72 GB ] Битва за Севастополь [2015 Военный ВОВ реальные события BDRemux 1080p] / Ger Transfer / Russian Mafia Скачать
1 | 0
Наши фильмы (HD, WEB-DL 720p, 1080p) [ 5.74 GB ] Битва за Севастополь [2015 военный BDRip 720p] [GER-Transfer] potroks Скачать
1 | 0
Наши новые фильмы 2015 [ 1.46 GB ] Битва за Севастополь [2015 военный DVDRip] ninla Скачать
1 | 0
Документальные фильмы и телепередачи [ 500 MB ] Легенды Крыма. Битва за Севастополь. [2015 Документальный военный DVB Оригинальный] кэп Скачать
1 | 0
T Наши фильмы (HD, WEB-DL 720p, 1080p) [ 5.99 GB ] Битва за Севастополь / Незламна [01-04 из 04] [2015 военный WEBRip 720p / Расширенная Телеверсия] Ворон Скачать
1 | 0
Наши фильмы (HD, WEB-DL 720p, 1080p) [ 9.88 GB ] Битва за Севастополь [2015 военный BDRip 1080p] Original Seedtank Скачать
1 | 0
Наши новые фильмы 2015 [ 1.46 GB ] Битва за Севастополь [2015 Военный BDRip-AVC] [] potroks Скачать
1 | 0

28-11-2019 20:33  

Отключить всю рекламу на сайте

17-05-2015 13:20 Битва за Севастополь Скачать торрент  

спасибо potroks, у тебя отличные рипы yes , забираюpb.wtf



17-05-2015 13:38 Битва за Севастополь Скачать торрент  

ТаможеНик, спасибоpb.wtf



23-05-2015 04:13 Битва за Севастополь Скачать торрент  

Неплохой фильм, наши еще не разучились снимать!pb.wtf



27-05-2015 19:49 Битва за Севастополь Скачать торрент  

русские фильмы вообще не люблю так ка наши снимать не хрена не умеют , НО это лучший фильм про войну из современных фильмов . приятного просмотра , не пожалеете.pb.wtf



15-12-2016 18:09 Битва за Севастополь Скачать торрент  

Дайте скорости народ... харе жадничетьpb.wtf



    Дорогой пользователь! Огромная просьба, поблагодарите релизера, оцените раздачу и оставьте свои комментарий, если Вы скачали Битва за Севастополь через торрент бесплатно! Внесите свою лепту в развитие PiratBit!
    Комментировать посты могут только пользователи прошедшие не сложную регистрацию
    Показать сообщения:    

    Битва за Севастополь через торрент
    Скачать бесплатно Битва за Севастополь
    Битва за Севастополь скачать торрент
    Битва за Севастополь смотреть онлайн
    Cкачать фильм Битва за Севастополь бесплатно
    Битва за Севастополь скачать торрент в хорошем качестве
    Битва за Севастополь смотреть онлайн бесплатно в хорошем качестве


    Вы не можете начинать темы
    Вы не можете отвечать на сообщения
    Вы не можете редактировать свои сообщения
    Вы не можете удалять свои сообщения
    Вы не можете голосовать в опросах
    Вы не можете прикреплять файлы к сообщениям
    Вы можете скачивать файлы