Ссылка на приватное зеркало нашего сайта всего за 1$. Внимание количество ограничено!!!

2 сезон

iTunes

1 сезон

1

2 сезон

2 сезон

iTunes

1 сезон

RePack

30

Ultimate

ВАЖНО

ИГРА 18+

pack

RePack

MK11
pack

Забери бонус

RePack

jed

!!Акция!!

Alien_Rage

RePack

fifa19

RePack

Assassins Creed: Odyssey

RePack

NEED FOR SPEED™ PAYBACK

4 сезон

9 сезон

Бесстыжие 9 сезон

Все сериалы

все сериалы на PB.wtf

RePack

FAR CRY 5
  

Тотем волка / Wolf Totem (Жан-Жак Анно ) [2015, приключения, BD Remux, DVO] pb.wtf

Тотем волка через торрент pb.wtf

Размер: 20.2 GB | Добавлен: 5 лет 6 мес. назад | Торрент скачан:36 раз
Скачать  

17-05-2015 11:12 Тотем волка Скачать торрент  


Тотем волка / Wolf Totem


ИНФОРМАЦИЯ:
Год выпуска:2015
Страна: Китай, Франция
Жанр: приключения
Продолжительность: 02:01:16
Перевод: Любительский (двухголосый) [Пиратская студия дубляжа]
Режиссер: Жан-Жак Анно

В Ролях:


Уилльям Фэн, Шон До (Yang Ke), Ба Сэнь Чжа Бу (Bilig), Анкхньям Рачаа (Gasma), Yin Zhusheng (Bao Shunghi), Baoyingexige (Batu)

Описание:
В 1967 году молодой пекинский студент Чэнь Чжэнь отправляется жить среди кочевых пастухов Внутренней Монголии.
Оказавшись зажатыми между прогрессом цивилизации с юга и мародерством волков на севере, люди и животные борются, чтобы найти свое место в мире.

  • Мировая премьера:19 февраля 2015

    ТЕХ.ДАННЫЕ:
    Качество: BD Remux
    Формат: MKV
    Видео кодек: AVC
    Аудио кодек: AC3
    Видео: AVC, 1920x1080 (16:9), 23459 kbps, 24 fps, 0,462 bpp
    Аудио: русский / AC3 / 2.0 / 48 kHz / 384 kbps / 16 bit ||



    Код:

    General
    Unique ID                                : 110006606944157679747111480122684447774 (0x52C280788C547F56B0AB4E92604B9C1E)
    Complete name                            : D:\Торенты\Кино\Totem.Volka.mkv
    Format                                   : Matroska
    Format version                           : Version 4 / Version 2
    File size                                : 20.2 GiB
    Duration                                 : 2h 1mn
    Overall bit rate mode                    : Variable
    Overall bit rate                         : 23.8 Mbps
    Encoded date                             : UTC 2015-05-17 03:30:41
    Writing application                      : mkvmerge v7.9.0 ('Birds') 64bit
    Writing library                          : libebml v1.3.1 + libmatroska v1.4.2

    Video
    ID                                       : 1
    Format                                   : AVC
    Format/Info                              : Advanced Video Codec
    Format profile                           : High@L4.1
    Format settings, CABAC                   : Yes
    Format settings, ReFrames                : 4 frames
    Codec ID                                 : V_MPEG4/ISO/AVC
    Duration                                 : 2h 1mn
    Bit rate mode                            : Variable
    Bit rate                                 : 23.0 Mbps
    Maximum bit rate                         : 30.0 Mbps
    Width                                    : 1 920 pixels
    Height                                   : 1 080 pixels
    Display aspect ratio                     : 16:9
    Frame rate                               : 24.000 fps
    Standard                                 : NTSC
    Color space                              : YUV
    Chroma subsampling                       : 4:2:0
    Bit depth                                : 8 bits
    Scan type                                : Progressive
    Bits/(Pixel*Frame)                       : 0.462
    Stream size                              : 19.5 GiB (96%)
    Default                                  : Yes
    Forced                                   : No
    Color primaries                          : BT.709-5, BT.1361, IEC 61966-2-4, SMPTE RP177
    Transfer characteristics                 : BT.709-5, BT.1361
    Matrix coefficients                      : BT.709-5, BT.1361, IEC 61966-2-4 709, SMPTE RP177

    Audio
    ID                                       : 2
    Format                                   : AC-3
    Format/Info                              : Audio Coding 3
    Mode extension                           : CM (complete main)
    Codec ID                                 : A_AC3
    Duration                                 : 2h 1mn
    Bit rate mode                            : Constant
    Bit rate                                 : 384 Kbps
    Channel(s)                               : 2 channels
    Channel positions                        : Front: L R
    Sampling rate                            : 48.0 KHz
    Bit depth                                : 16 bits
    Compression mode                         : Lossy
    Stream size                              : 333 MiB (2%)
    Language                                 : Russian
    Default                                  : Yes
    Forced                                   : No

    Скриншоты:


    © Оформление by Ворон
    pb.wtf



  • Скачать Тотем волка через торрент http://pic.kartinco.top/images/6/ordi9.jpg Скачать фильм Тотем волка через торрент бесплантно в хорошем качестве Описание: В 1967 году молодой пекинский студент Чэнь Чжэнь отправляется жить среди кочевых пастухов Внутренней Монголии. Оказавшись ... 10 10 3
    Торрент: Зарегистрирован [2015-05-17 11:12] · скачан: 36 раз
    Статус: √ проверено
    Размер: 20.2 GB
    Как cкачать? Как скачать Тотем волка через торрент | qTorrent

    % Раздел Тема Автор DL S | L
    T Азиатские фильмы [ 1.46 GB ] Тотем волка / Wolf Totem [2015 HDRip Любительский [Пиратская студия дубляжа] Ворон Скачать
    1 | 0

    28-11-2019 20:33  

    Отключить всю рекламу на сайте

    16-07-2015 09:08 Тотем волка Скачать торрент  

    Раздачи нетpb.wtf
    !Ворон писал(а):

    лс смотрите



    16-07-2015 09:10 Тотем волка Скачать торрент  

    16-07-2015 10:06 Тотем волка Скачать торрент  

    Спасибо тов. Ворон, сбросил, пошло нормально теперь.pb.wtf



    02-06-2018 14:15 Тотем волка Скачать торрент  

    Господа раздающие, можно скорости немного поддать? Спасибо.pb.wtf



      Дорогой пользователь! Огромная просьба, поблагодарите релизера, оцените раздачу и оставьте свои комментарий, если Вы скачали Тотем волка через торрент бесплатно! Внесите свою лепту в развитие PiratBit!
      Комментировать посты могут только пользователи прошедшие не сложную регистрацию
      Показать сообщения:    

      Тотем волка через торрент
      Скачать бесплатно Тотем волка
      Тотем волка скачать торрент
      Тотем волка смотреть онлайн
      Cкачать фильм Тотем волка бесплатно
      Тотем волка скачать торрент в хорошем качестве
      Тотем волка смотреть онлайн бесплатно в хорошем качестве


      Вы не можете начинать темы
      Вы не можете отвечать на сообщения
      Вы не можете редактировать свои сообщения
      Вы не можете удалять свои сообщения
      Вы не можете голосовать в опросах
      Вы не можете прикреплять файлы к сообщениям
      Вы можете скачивать файлы