Ссылка на приватное зеркало всего за 1$. Внимание количество ограничено!!!

OK

1+1

iTunes

мы

OK

1

WEB-DLRip

Джокер

Пифагор

Ведьмак / The Witcher сериал

iTunes

ПШазам

ОК

Оно 2

iTunes

30
pack

Вам бонус

ВАЖНО

!!Акция!!

Alien_RageХит недели

RePack

Resident Evil 21

ИГРА 18+

pack

RePack

jed

RePack

fifa19

RePack

Assassins Creed: Odyssey

RePack

NEED FOR SPEED™ PAYBACK

4 сезон

9 сезон

Бесстыжие 9 сезон

Все сериалы

все сериалы на PB.wtf

RePack

FAR CRY 5
  

Из машины / Ex Machina (Алекс Гарленд / Alex Garland) [2015, Фантастика, драма, BDRip-AVC] DUB Лицензия pb.wtf

Из машины через торрент pb.wtf

Раздают: 1 [ 24 KB/s ]
Размер: 1.46 GB | Добавлен: 4 года 8 мес. назад | Торрент скачан:4109 раз
Скачать  

18-05-2015 11:11 Из машины Скачать торрент  

Из машины / Ex Machina
Год выпуска: 2015
Страна: Великобритания / DNA Films, Film4
Жанр: Фантастика, драма
Продолжительность: 01:47:59
Перевод: Дубляж [BD CEE]
Субтитры: Русские (Blu-Ray), русские (MаrtinаG)

Режиссер: Алекс Гарленд / Alex Garland

В ролях: Донал Глисон, Алисия Викандер, Оскар Айзек, Соноя Мидзуно, Кори Джонсон, Claire Selby, Симара А. Темплмен, Gana Bayarsaikhan, Тиффани Писани, Элина Алминас

Описание: В центре сюжета — молодой человек, которого нанимает миллиардер, сделавший состояние на высокотехнологичных разработках. Задача работника — провести неделю в удаленном местечке, тестируя женщину-робота с искусственным интеллектом.



Качество: BDRip-AVC
Формат: MKV
Видео кодек: x.264
Аудио кодек: AC3
Видео: 984x412 (2,40:1), 23.976 fps, 1488 kbps, 0.153 bit/pixel
Аудио: 48 kHz, AC3 Dolby Digital, 3/2 (L,C,R,l,r) + LFE ch, 448.00 kbps

Релиз группы:
Автор рипа: potroks

Общее
Уникальный идентификатор : 224558741214125135195133439007772102122 (0xA8F070BDE954D9D4A5B9680BC5FBCDEA)
Полное имя : Iz.Mashyny.2015.RUS.BDRip.x264.-HELLYWOOD.mkv
Формат : Matroska
Версия формата : Version 4 / Version 2
Размер файла : 1,46 Гбайт
Продолжительность : 1 ч. 47 м.
Общий поток : 1938 Кбит/сек
Название фильма : Ex Machina (2015) - HELLYWOOD
Дата кодирования : UTC 2015-05-18 10:47:41
Программа кодирования : mkvmerge v5.9.0 ('On The Loose') built on Dec 15 2012 16:39:58
Библиотека кодирования : libebml v1.3.0 + libmatroska v1.4.0

Видео
Идентификатор : 1
Формат : AVC
Формат/Информация : Advanced Video Codec
Профиль формата : High@L4.1
Параметр CABAC формата : Да
Параметр ReFrames формата : 12 кадров
Идентификатор кодека : V_MPEG4/ISO/AVC
Продолжительность : 1 ч. 47 м.
Битрейт : 1488 Кбит/сек
Ширина : 984 пикселя
Высота : 412 пикселей
Соотношение сторон : 2,40:1
Режим частоты кадров : Постоянный
Частота кадров : 23,976 кадра/сек
Цветовое пространство : YUV
Субдискретизация насыщенности : 4:2:0
Битовая глубина : 8 бит
Тип развёртки : Прогрессивная
Бит/(Пиксели*Кадры) : 0.153
Размер потока : 1,09 Гбайт (75%)
Заголовок : potroks
Библиотека кодирования : x264 core 146 r2538 121396c
Настройки программы : cabac=1 / ref=12 / deblock=1:-2:-2 / analyse=0x3:0x113 / me=umh / subme=11 / psy=1 / psy_rd=1.00:0.03 / mixed_ref=1 / me_range=48 / chroma_me=1 / trellis=2 / 8x8dct=1 / cqm=0 / deadzone=21,11 / fast_pskip=0 / chroma_qp_offset=-3 / threads=12 / lookahead_threads=2 / sliced_threads=0 / nr=0 / decimate=0 / interlaced=0 / bluray_compat=0 / constrained_intra=0 / bframes=13 / b_pyramid=2 / b_adapt=2 / b_bias=0 / direct=3 / weightb=1 / open_gop=0 / weightp=2 / keyint=250 / keyint_min=23 / scenecut=40 / intra_refresh=0 / rc_lookahead=60 / rc=2pass / mbtree=0 / bitrate=1488 / ratetol=1.0 / qcomp=0.70 / qpmin=0 / qpmax=69 / qpstep=4 / cplxblur=20.0 / qblur=0.5 / vbv_maxrate=14000 / vbv_bufsize=14000 / nal_hrd=none / filler=0 / ip_ratio=1.35 / pb_ratio=1.25 / aq=1:0.80
Язык : English
Default : Да
Forced : Нет

Аудио
Идентификатор : 2
Формат : AC-3
Формат/Информация : Audio Coding 3
Расширение режима : CM (complete main)
Параметр Endianness формата : Big
Идентификатор кодека : A_AC3
Продолжительность : 1 ч. 47 м.
Вид битрейта : Постоянный
Битрейт : 448 Кбит/сек
Каналы : 6 каналов
Расположение каналов : Front: L C R, Side: L R, LFE
Частота : 48,0 КГц
Битовая глубина : 16 бит
Метод сжатия : С потерями
Размер потока : 346 Мбайт (23%)
Заголовок : Dub | DD 5.1 @ 448 kbps - Blu-Ray CEE
Язык : Russian
Default : Да
Forced : Нет

Текст #1
Идентификатор : 3
Формат : UTF-8
Идентификатор кодека : S_TEXT/UTF8
Идентификатор кодека/Информация : UTF-8 Plain Text
Заголовок : Blu-Ray
Язык : Russian
Default : Нет
Forced : Нет

Текст #2
Идентификатор : 4
Формат : UTF-8
Идентификатор кодека : S_TEXT/UTF8
Идентификатор кодека/Информация : UTF-8 Plain Text
Заголовок : MаrtinаG
Язык : Russian
Default : Нет
Forced : Нет

Меню
00:00:00.000 : en:(01)00:00:00:000
00:04:34.940 : en:(02)00:04:34:940
00:11:16.634 : en:(03)00:11:16:634
00:15:08.157 : en:(04)00:15:08:157
00:23:38.750 : en:(05)00:23:38:750
00:31:57.999 : en:(06)00:31:57:999
00:36:05.163 : en:(07)00:36:05:163
00:40:26.757 : en:(08)00:40:26:757
00:45:56.378 : en:(09)00:45:56:378
00:53:28.954 : en:(10)00:53:28:954
01:00:26.079 : en:(11)01:00:26:079
01:04:01.253 : en:(12)01:04:01:253
01:07:19.076 : en:(13)01:07:19:076
01:13:22.021 : en:(14)01:13:22:021
01:16:56.110 : en:(15)01:16:56:110
01:21:36.515 : en:(16)01:21:36:515
01:27:36.832 : en:(17)01:27:36:832
01:32:54.149 : en:(18)01:32:54:149
01:38:51.006 : en:(19)01:38:51:006
01:42:26.931 : en:(20)01:42:26:931
01:48:00.640 : en:(21)01:48:00:640

pb.wtf



Скачать Из машины через торрент http://pic.kartinco.top/images/11/vssfw.jpg Скачать фильм Из машины через торрент бесплантно в хорошем качестве Описание: В центре сюжета — молодой человек, которого нанимает миллиардер, сделавший состояние на высокотехнологичных разработках. Задача ... 9.5 10 55
Info! Золотая раздача, скачанное не засчитывается.
Торрент: Зарегистрирован [2015-05-18 11:11] · скачан: 4 109 раз
Статус: √ проверено
Размер: 1.46 GB
Как cкачать? Как скачать Из машины через торрент | qTorrent

% Раздел Тема Автор DL S | L
Фильмы 2015 [DVDrip, WEB-DLRip, HDrip] [ 1.37 GB ] Из машины / Ex Machina [2015 HDRip] DUB GEKADOL Скачать
1 | 0
Фильмы 2015 [DVDrip, WEB-DLRip, HDrip] [ 2.04 GB ] Из машины / Ex Machina [2015 HDRip] DUB + ENG GEKADOL Скачать
1 | 0
Фильмы [HD 720p, 1080p] (Хороший звук DUB, MVO) [ 5.8 GB ] Из машины / Ex Machina [2015 BDRip 720p] DUB + ENG GEKADOL Скачать
1 | 0
Фильмы 2015 [DVDrip, WEB-DLRip, HDrip] [ 2.15 GB ] Из машины / Ex Machina [2015 BDRip-AVC] DUB Ворон Скачать
1 | 0

28-11-2019 20:33  

Отключить всю рекламу на сайте

19-05-2015 14:18 Из машины Скачать торрент  

Хороше кино!!!pb.wtf



23-05-2015 07:43 Из машины Скачать торрент  

Отличный фильм.
Скачивал как обычное кино на раз, а это оказалась очень интересная и глубокая работаpb.wtf



24-05-2015 16:51 Из машины Скачать торрент  

Посмотреть можноpb.wtf



25-05-2015 18:17 Из машины Скачать торрент  

хороший фильмpb.wtf



25-05-2015 22:46 Из машины Скачать торрент  

-Женщина
-с интеллектом
-лолшто :rofle:pb.wtf



27-05-2015 15:35 Из машины Скачать торрент  

Чего-то в этом фильме не хватает...В целом, оправдывает свой рейтингpb.wtf



27-05-2015 15:57 Из машины Скачать торрент  

Из машины???? Они там промтом переводили?pb.wtf



29-06-2015 11:08 Из машины Скачать торрент  

Классный фильм советую посмотреть, девочка робот очень симпатичная я бы себе хотел такую,фильм о добре и зле об и скуственном разуме и его возможностях.pb.wtf



02-07-2015 20:11 Из машины Скачать торрент  

Печалька :film:pb.wtf



17-08-2015 20:37 Из машины Скачать торрент  

перевод названия просто круть)))))))))))pb.wtf



29-02-2016 10:33 Из машины Скачать торрент  

я смотрю тут одни специалисты по латыни собрались. и как вы бы перевели Ex Machina, учитывая что это явно часть поговорки deus ex machina (бог из машины)?pb.wtf



18-12-2016 15:46 Из машины Скачать торрент  

Фильм очень занятный, но не ясно почему
почему был проигнорированы три закона Айзека Азимова
pb.wtf



07-05-2017 22:07 Из машины Скачать торрент  

barak писал(а):

Фильм очень занятный, но не ясно почему
почему был проигнорированы три закона Айзека Азимова

barak писал(а):

Фильм очень занятный, но не ясно почему
почему был проигнорированы три закона Айзека Азимова

Потому, что искусственный интеллект это уже не робот, а самостоятельная единица которая может как и человек (в зависимости от ситуации, думать только о себе в первую очередь). В фильме это очень хорошо показано, что аж человек усомнился, а человек ли он? Мощный момент.pb.wtf



    Дорогой пользователь! Огромная просьба, поблагодарите релизера, оцените раздачу и оставьте свои комментарий, если Вы скачали Из машины через торрент бесплатно! Внесите свою лепту в развитие PiratBit!
    Комментировать посты могут только пользователи прошедшие не сложную регистрацию
    Показать сообщения:    

    Из машины через торрент
    Скачать бесплатно Из машины
    Из машины скачать торрент
    Из машины смотреть онлайн
    Cкачать фильм Из машины бесплатно
    Из машины скачать торрент в хорошем качестве
    Из машины смотреть онлайн бесплатно в хорошем качестве


    Вы не можете начинать темы
    Вы не можете отвечать на сообщения
    Вы не можете редактировать свои сообщения
    Вы не можете удалять свои сообщения
    Вы не можете голосовать в опросах
    Вы не можете прикреплять файлы к сообщениям
    Вы можете скачивать файлы