Ссылка на приватное зеркало всего за 1$. Внимание количество ограничено!!!

OK

1+1

iTunes

мы

OK

1

WEB-DLRip

Джокер

Пифагор

Ведьмак / The Witcher сериал

iTunes

ПШазам

ОК

Оно 2

iTunes

30
pack

Вам бонус

ВАЖНО

!!Акция!!

Alien_RageХит недели

RePack

Resident Evil 21

ИГРА 18+

pack

RePack

jed

RePack

fifa19

RePack

Assassins Creed: Odyssey

RePack

NEED FOR SPEED™ PAYBACK

4 сезон

9 сезон

Бесстыжие 9 сезон

Все сериалы

все сериалы на PB.wtf

RePack

FAR CRY 5
  

Институт Аттикус / The Atticus Institute (Крис Спарлинг / Chris Sparling) [2015, США, ужасы, триллер, драма, HDRip, Дубляж - Лицензия / iTunes] pb.wtf

Институт Аттикус через торрент pb.wtf

Размер: 1.37 GB | Добавлен: 4 года 8 мес. назад | Торрент скачан:2301 раз
Скачать  

18-05-2015 12:41 Институт Аттикус Скачать торрент  

Институт Аттикус / The Atticus Institute


  • Год выпуска: 2015
  • Страна: США
  • Жанр: ужасы, триллер, драма
  • Продолжительность: 01:22:48
  • Перевод: Дубляж - [Лицензия / iTunes]

  • Режиссер: Крис Спарлинг / Chris Sparling
  • В ролях:

    Джулиан Акоста (Young Robert Koep), Энн Бетанкур (Joanne Breault), Карлос Е. Кампос (Government Researcher 3), Джейк Карпентер (Norman LeClair), Хит Сентаццо (EMT #2), Брайан Ченоуэт (Father Donnelly), Ханна Коули (Young Susan Gorman), Аарон Крэвен (Young Marcus Wheeler), Динарте де Фрейтас (Research Assistant), Лэндалл Гулсби (Research Assistant), Джо Гварнери (Sergeant Parella), Сюзанн Джемисон (Cathleen West-Tremello)

  • Описание:
    В 70-х годах доктором Генри Уэстом был создан институт Аттикус, в котором доктор Генри Уэст проводил над людьми с паранормальными способностями тесты. Доктор повидал самых различных людей с необычными способностями, но в скором времени у них оказалась Джудит Уистенд. Эта девушка показала самые невероятные способности, что привлекло внимание военных, решивших взять под собственный контроль Аттикус. При просмотре фильма ужасов 2015 - Институт Аттикус зрители увидят, что над Джудит проводилось множество экспериментов. После каждого сеанса ученые понимали, что в девушке заключена злая сила. Так они решают использовать девушку в военных целях. Но они не подумали о существовании силы, одолеть которую непосильно ни одному человеку.
  • Рейтинг:



  • Качество: HDRip
  • Формат: :AVI
  • Видео кодек: XviD
  • Аудио кодек: AC3
  • Видео: 720x384 (1.875), 1969 kbps, 23,976 fps, 0,297 bpp
  • Аудио: 5.1 / 48 kHz / 384 kbps / 16 bit
  • Релиз от: GEKADOL

    Код:

    General
    Complete name                            : F:\Institut.Attikus.2015.D.HDRip.1400Mb.avi
    Format                                   : AVI
    Format/Info                              : Audio Video Interleave
    File size                                : 1.37 GiB
    Duration                                 : 1h 22mn
    Overall bit rate                         : 2 363 Kbps
    Writing application                      : VirtualDubMod 1.5.10.3 | www.virtualdub-fr.org || (build 2550/release)
    Writing library                          : VirtualDubMod build 2550/release

    Video
    ID                                       : 0
    Format                                   : MPEG-4 Visual
    Format profile                           : Advanced Simple@L5
    Format settings, BVOP                    : 2
    Format settings, QPel                    : No
    Format settings, GMC                     : No warppoints
    Format settings, Matrix                  : Default (MPEG)
    Codec ID                                 : XVID
    Codec ID/Hint                            : XviD
    Duration                                 : 1h 22mn
    Bit rate                                 : 1 970 Kbps
    Width                                    : 720 pixels
    Height                                   : 384 pixels
    Display aspect ratio                     : 1.875
    Frame rate                               : 23.976 fps
    Color space                              : YUV
    Chroma subsampling                       : 4:2:0
    Bit depth                                : 8 bits
    Scan type                                : Progressive
    Compression mode                         : Lossy
    Bits/(Pixel*Frame)                       : 0.297
    Stream size                              : 1.14 GiB (83%)
    Writing library                          : XviD 1.2.1 (UTC 2008-12-04)

    Audio
    ID                                       : 1
    Format                                   : AC-3
    Format/Info                              : Audio Coding 3
    Mode extension                           : CM (complete main)
    Codec ID                                 : 2000
    Duration                                 : 1h 22mn
    Bit rate mode                            : Constant
    Bit rate                                 : 384 Kbps
    Channel(s)                               : 6 channels
    Channel positions                        : Front: L C R, Side: L R, LFE
    Sampling rate                            : 48.0 KHz
    Bit depth                                : 16 bits
    Compression mode                         : Lossy
    Stream size                              : 227 MiB (16%)
    Alignment                                : Split accross interleaves
    Interleave, duration                     : 42 ms (1.00 video frame)
    Interleave, preload duration             : 500 ms




    Скриншоты:



    pb.wtf



  • Скачать Институт Аттикус через торрент http://i4.imageban.ru/out/2015/05/18/6e86c59b6fe4065bc2275c9d9d1eae1a.jpg Скачать фильм Институт Аттикус через торрент бесплантно в хорошем качестве Описание: В 70-х годах доктором Генри Уэстом был создан институт Аттикус, в котором доктор Генри Уэст проводил над людьми с паранормальными ... 9.6 10 72
    Info! Золотая раздача, скачанное не засчитывается.
    Торрент: Зарегистрирован [2015-05-18 12:41] · скачан: 2 301 раз
    Статус: √ проверено
    Размер: 1.37 GB
    Как cкачать? Как скачать Институт Аттикус через торрент | qTorrent

    % Раздел Тема Автор DL S | L
    Фильмы 2015 [DVDrip, WEB-DLRip, HDrip] [ 2.18 GB ] Институт Аттикус / The Atticus Institute [2015 BDRip-AVC от sokol_ok] Dub sokol_ok Скачать
    2 | 0
    Фильмы 2015 [DVDrip, WEB-DLRip, HDrip] [ 748 MB ] Институт Аттикус / The Atticus Institute [2015 BDRip от ALGORITM / ] Ворон Скачать
    1 | 0
    Фильмы 2015 [DVDrip, WEB-DLRip, HDrip] [ 1.45 GB ] Институт Аттикус / The Atticus Institute [2015 BDRip-AVC от sokol_ok] Dub sokol_ok Скачать
    2 | 0
    Фильмы (Blu-ray, BD-Remux, HDDVD) [ 16.7 GB ] Институт Аттикус / The Atticus Institute [2015 BDRemux 1080p от NovaLan] DUB Ворон Скачать
    1 | 0
    Фильмы (DVD фильмы) [ 5.02 GB ] Институт Аттикус / The Atticus Institute [2015 DVD9] R5 voovaz Скачать
    1 | 0
    Фильмы [HD 720p, 1080p] (Хороший звук DUB, MVO) [ 5.85 GB ] Институт Аттикус / The Atticus Institute [2015 BDRip 1080p - / ] GEKADOL Скачать
    1 | 0

    28-11-2019 20:33  

    Отключить всю рекламу на сайте

    18-05-2015 17:06 Институт Аттикус Скачать торрент  

    срань господня! надо качать полюбасpb.wtf



    19-05-2015 16:09 Институт Аттикус Скачать торрент  

    После такого описания грех не скачать )))pb.wtf



    19-05-2015 19:14 Институт Аттикус Скачать торрент  

    пожалуй гляну.спасибо.pb.wtf



    21-05-2015 05:20 Институт Аттикус Скачать торрент  

    Вячеслав19797979 писал(а):

    пожалуй гляну.спасибо.

    Да, присоединюсь)pb.wtf



    21-05-2015 11:15 Институт Аттикус Скачать торрент  

    Хреньpb.wtf



    22-05-2015 19:00 Институт Аттикус Скачать торрент  

    mkey, andreyz666, Вячеслав19797979, urvic,
    Какие впечатления?pb.wtf



    23-07-2015 14:41 Институт Аттикус Скачать торрент  

    нудный очень и скучный, снят как документальный фильмpb.wtf



      Дорогой пользователь! Огромная просьба, поблагодарите релизера, оцените раздачу и оставьте свои комментарий, если Вы скачали Институт Аттикус через торрент бесплатно! Внесите свою лепту в развитие PiratBit!
      Комментировать посты могут только пользователи прошедшие не сложную регистрацию
      Показать сообщения:    

      Институт Аттикус через торрент
      Скачать бесплатно Институт Аттикус
      Институт Аттикус скачать торрент
      Институт Аттикус смотреть онлайн
      Cкачать фильм Институт Аттикус бесплатно
      Институт Аттикус скачать торрент в хорошем качестве
      Институт Аттикус смотреть онлайн бесплатно в хорошем качестве


      Вы не можете начинать темы
      Вы не можете отвечать на сообщения
      Вы не можете редактировать свои сообщения
      Вы не можете удалять свои сообщения
      Вы не можете голосовать в опросах
      Вы не можете прикреплять файлы к сообщениям
      Вы можете скачивать файлы