Ссылка на приватное зеркало нашего сайта всего за 1$. Внимание количество ограничено!!!

2 сезон

iTunes

1 сезон

1

2 сезон

2 сезон

iTunes

1 сезон

RePack

30

Новинка

ВАЖНО

ИГРА 18+

pack

RePack

MK11
pack

Забери бонус

RePack

jed

!!Акция!!

Alien_Rage

RePack

fifa19

RePack

Assassins Creed: Odyssey

RePack

NEED FOR SPEED™ PAYBACK

4 сезон

9 сезон

Бесстыжие 9 сезон

Все сериалы

все сериалы на PB.wtf

RePack

FAR CRY 5
  

Робот по имени Чаппи / Chappie (Нил Бломкамп) [2015 г., фантастика, боевик, триллер, WEB-DLRip 1080p, Дубляж [Лицензия / iTunes]] pb.wtf

Робот по имени Чаппи через торрент pb.wtf

Размер: 6.1 GB | Добавлен: 5 лет 6 мес. назад | Торрент скачан:799 раз
Скачать  

18-05-2015 17:53 Робот по имени Чаппи Скачать торрент  

Робот по имени Чаппи / Chappie
Год выпуска: 2015
Страна: США, Мексика, ЮАР
Жанр: фантастика, боевик, триллер
Продолжительность: 02:00:20
Перевод: Дубляж [Лицензия / iTunes]
Субтитры: русские, украинские, английские

Режиссер: Нил Бломкамп
Продюссер: Нил Бломкамп, Саймон Кинберг, Джеймс Битонти
Сценарий: Нил Бломкамп, Тэрри Татчелл

Бюджет: $49 000 000
Премьера в мире: 4 марта 2015

Рейтинг R - Детям до 17 лет обязательно присутствие родителей

IMDB 7.20 (35 497)



В ролях: Шарлто Копли, Дев Патель, Ниндзя, Йоланди Фиссер, Хосе Пабло Кантильо, Хью Джекман, Сигурни Уивер, Брэндон Оре, Джонни Селема, Андерсон Купер

Описание: Чаппи — вундеркинд. Как и любой другой ребенок, он попадает под влияние своего окружения, и только его сердце и душа помогут ему найти свой путь. Но есть одна вещь, которая делает Чаппи непохожим на всех остальных: он — первый робот, способный чувствовать и думать.

Качество: WEB-DLRip 1080p
Формат: MKV
Видео кодек: AVC
Аудио кодек: AC3
Видео: 6452 Кбит/сек, 1916x796, 23,976 кадра/сек
Аудио#1: 384 Кбит/сек, 6 каналов, 48,0 КГц - русский
Аудио#2: 192 Кбит/сек, 2 канала, 48,0 КГц - украинский
Аудио#3: 224 Кбит/сек, 2 канала, 48,0 КГц - английский
Субтитры#1: srt, softsub, русские полные
Субтитры#2: srt, softsub, русские форс.
Субтитры#3: srt, softsub, украинские полные
Субтитры#4: srt, softsub, английские






Формат : Matroska
Версия формата : Version 4 / Version 2
Размер файла : 6,10 Гбайт
Продолжительность : 2 ч. 0 м.
Общий поток : 7252 Кбит/сек
Дата кодирования : UTC 2015-05-18 17:19:46
Программа кодирования : mkvmerge v6.9.1 ('Blue Panther') 32bit built on Apr 18 2014 18:15:44
Библиотека кодирования : libebml v1.3.0 + libmatroska v1.4.1
DURATION : 02:00:20.896000000
NUMBER_OF_FRAMES : 225653
NUMBER_OF_BYTES : 202185088
_STATISTICS_WRITING_APP : mkvmerge v7.9.0 ('Birds') 64bit
_STATISTICS_WRITING_DATE_UTC : 2015-05-17 01:26:50
_STATISTICS_TAGS : BPS DURATION NUMBER_OF_FRAMES NUMBER_OF_BYTES

Видео
Идентификатор : 1
Формат : AVC
Формат/Информация : Advanced Video Codec
Профиль формата : High@L4.1
Параметр CABAC формата : Да
Параметр ReFrames формата : 5 кадров
Идентификатор кодека : V_MPEG4/ISO/AVC
Продолжительность : 2 ч. 0 м.
Битрейт : 6452 Кбит/сек
Ширина : 1916 пикселей
Высота : 796 пикселей
Соотношение сторон : 2,40:1
Режим частоты кадров : Постоянный
Частота кадров : 23,976 кадра/сек
Цветовое пространство : YUV
Субдискретизация насыщенности : 4:2:0
Битовая глубина : 8 бит
Тип развёртки : Прогрессивная
Бит/(Пиксели*Кадры) : 0.176
Размер потока : 5,30 Гбайт (87%)
Библиотека кодирования : x264 core 146 r2538 121396c
Настройки программы : cabac=1 / ref=5 / deblock=1:-3:-3 / analyse=0x3:0x113 / me=hex / subme=7 / psy=1 / psy_rd=1.00:0.05 / mixed_ref=1 / me_range=16 / chroma_me=1 / trellis=2 / 8x8dct=1 / cqm=0 / deadzone=21,11 / fast_pskip=1 / chroma_qp_offset=-3 / threads=7 / lookahead_threads=1 / sliced_threads=0 / nr=0 / decimate=1 / interlaced=0 / bluray_compat=0 / constrained_intra=0 / bframes=3 / b_pyramid=2 / b_adapt=2 / b_bias=0 / direct=1 / weightb=1 / open_gop=0 / weightp=2 / keyint=240 / keyint_min=23 / scenecut=40 / intra_refresh=0 / rc_lookahead=60 / rc=2pass / mbtree=1 / bitrate=6452 / ratetol=1.0 / qcomp=0.60 / qpmin=0 / qpmax=69 / qpstep=4 / cplxblur=20.0 / qblur=0.5 / vbv_maxrate=62500 / vbv_bufsize=78125 / nal_hrd=none / filler=0 / ip_ratio=1.40 / aq=1:1.00
Язык : English
Default : Да
Forced : Нет
Основные цвета : BT.709
Характеристики трансфера : BT.709
Коэффициенты матрицы : BT.709
DURATION : 02:00:20.839000000
NUMBER_OF_FRAMES : 173127
NUMBER_OF_BYTES : 5821129925
_STATISTICS_WRITING_APP : mkvmerge v7.9.0 ('Birds') 64bit
_STATISTICS_WRITING_DATE_UTC : 2015-05-17 01:26:50
_STATISTICS_TAGS : BPS DURATION NUMBER_OF_FRAMES NUMBER_OF_BYTES

Аудио #1
Идентификатор : 2
Формат : AC-3
Формат/Информация : Audio Coding 3
Расширение режима : CM (complete main)
Параметр Endianness формата : Big
Идентификатор кодека : A_AC3
Продолжительность : 2 ч. 0 м.
Вид битрейта : Постоянный
Битрейт : 384 Кбит/сек
Каналы : 6 каналов
Расположение каналов : Front: L C R, Side: L R, LFE
Частота : 48,0 КГц
Битовая глубина : 16 бит
Метод сжатия : С потерями
Размер потока : 331 Мбайт (5%)
Язык : Russian
Default : Да
Forced : Нет

Аудио #2
Идентификатор : 3
Формат : AC-3
Формат/Информация : Audio Coding 3
Расширение режима : CM (complete main)
Параметр Endianness формата : Big
Идентификатор кодека : A_AC3
Продолжительность : 2 ч. 0 м.
Вид битрейта : Постоянный
Битрейт : 192 Кбит/сек
Каналы : 2 канала
Расположение каналов : Front: L R
Частота : 48,0 КГц
Битовая глубина : 16 бит
Метод сжатия : С потерями
Размер потока : 165 Мбайт (3%)
Язык : Ukrainian
Default : Нет
Forced : Нет

Аудио #3
Идентификатор : 4
Формат : AC-3
Формат/Информация : Audio Coding 3
Расширение режима : CM (complete main)
Параметр Endianness формата : Big
Идентификатор кодека : A_AC3
Продолжительность : 2 ч. 0 м.
Вид битрейта : Постоянный
Битрейт : 224 Кбит/сек
Каналы : 2 канала
Расположение каналов : Front: L R
Частота : 48,0 КГц
Битовая глубина : 16 бит
Метод сжатия : С потерями
Размер потока : 193 Мбайт (3%)
Заголовок : Chappie.2015.1080p.WEBRiP.x264.AC3-SiMPLE
Язык : English
Default : Нет
Forced : Нет

Текст #1
Идентификатор : 5
Формат : UTF-8
Идентификатор кодека : S_TEXT/UTF8
Идентификатор кодека/Информация : UTF-8 Plain Text
Язык : Russian
Default : Да
Forced : Нет

Текст #2
Идентификатор : 6
Формат : UTF-8
Идентификатор кодека : S_TEXT/UTF8
Идентификатор кодека/Информация : UTF-8 Plain Text
Язык : Russian
Default : Нет
Forced : Нет

Текст #3
Идентификатор : 7
Формат : UTF-8
Идентификатор кодека : S_TEXT/UTF8
Идентификатор кодека/Информация : UTF-8 Plain Text
Язык : Ukrainian
Default : Нет
Forced : Нет

Текст #4
Идентификатор : 8
Формат : UTF-8
Идентификатор кодека : S_TEXT/UTF8
Идентификатор кодека/Информация : UTF-8 Plain Text
Язык : English
Default : Нет
Forced : Нет

Меню
00:00:00.000 : en:1
00:03:37.000 : en:2
00:09:55.000 : en:3
00:13:50.000 : en:4
00:21:53.000 : en:5
00:31:16.000 : en:6
00:37:18.000 : en:7
00:46:56.000 : en:8
00:54:34.000 : en:9
01:06:09.000 : en:10
01:09:54.000 : en:11
01:16:44.000 : en:12
01:24:55.000 : en:13
01:31:30.000 : en:14
01:42:31.000 : en:15
01:49:58.000 : en:16


Робот по имени Чаппи скачать торрент


pb.wtf



Скачать Робот по имени Чаппи через торрент http://i71.fastpic.ru/big/2015/0518/6d/a83ab85567cef7a9af05b38be84eb56d.png Скачать фильм Робот по имени Чаппи через торрент бесплантно в хорошем качестве Описание: Чаппи — вундеркинд. Как и любой другой ребенок, он попадает под влияние своего окружения, и только его сердце и душа помогут ему ... 9.9 10 29
Info! Золотая раздача, скачанное не засчитывается.
Торрент: Зарегистрирован [2015-05-18 17:53] · скачан: 799 раз
Статус: √ проверено
Размер: 6.1 GB
Как cкачать? Как скачать Робот по имени Чаппи через торрент | qTorrent

% Раздел Тема Автор DL S | L
Фильмы (Blu-ray, BD-Remux, HDDVD) [ 31.76 GB ] Робот по имени Чаппи / Chappie [2015 BDRemux 1080p] DUB + 2xAVO sheker187 Скачать
1 | 0
Ultra HD (UHD: 2K, 4K, 8K) — видео сверхвысокой чёткости [ 69.06 GB ] Робот по имени Чаппи / Chappie [2015 UHD BDRemux 2160p] DUB [] +4xAVO bober100 Скачать
1 | 0
T Фильмы (HD 720p, 1080p) (48-60 fps) [ 11.93 GB ] Робот по имени Чаппи / Chappie [2015 BDRip 720p 60fps Dub AVO Original Experimental] от R.G. HD-Films Tiberiumsun69 Скачать
2 | 0
Фильмы [HD 720p, 1080p] (Хороший звук DUB, MVO) [ 7.77 GB ] Робот по имени Чаппи / Chappie [2015 BDRip 1080p] 2xDUB () bober100 Скачать
1 | 0
Ultra HD (UHD: 2K, 4K, 8K) — видео сверхвысокой чёткости [ 56.95 GB ] Робот по имени Чаппи / Chappie [2015 UHD WEBRip 2160p ] [USA Transfer] 2xDUB+3xAVO [] bober100 Скачать
1 | 0
Фильмы с авторской озвучкой [ 1.46 GB ] Робот по имени Чаппи / Chappie [2015 HDRip] [AVO] killermax2013 Скачать
1 | 0
Фильмы [HD 720p, 1080p] (Хороший звук DUB, MVO) [ 5.99 GB ] Робот по имени Чаппи / Chappie [2015 BDRip 720p] DUB potroks Скачать
2 | 0

28-11-2019 20:33  

Отключить всю рекламу на сайте

    Дорогой пользователь! Огромная просьба, поблагодарите релизера, оцените раздачу и оставьте свои комментарий, если Вы скачали Робот по имени Чаппи через торрент бесплатно! Внесите свою лепту в развитие PiratBit!
    Комментировать посты могут только пользователи прошедшие не сложную регистрацию
    Показать сообщения:    

    Робот по имени Чаппи через торрент
    Скачать бесплатно Робот по имени Чаппи
    Робот по имени Чаппи скачать торрент
    Робот по имени Чаппи смотреть онлайн
    Cкачать фильм Робот по имени Чаппи бесплатно
    Робот по имени Чаппи скачать торрент в хорошем качестве
    Робот по имени Чаппи смотреть онлайн бесплатно в хорошем качестве


    Вы не можете начинать темы
    Вы не можете отвечать на сообщения
    Вы не можете редактировать свои сообщения
    Вы не можете удалять свои сообщения
    Вы не можете голосовать в опросах
    Вы не можете прикреплять файлы к сообщениям
    Вы можете скачивать файлы