Ссылка на приватное зеркало всего за 1$. Внимание количество ограничено!!!

iTunes

iTunes

iTunes

1

iTunes

iTunes

iTunes

iTunes

iTunes

30
pack

$ от Little Big

ВАЖНО

!!Акция!!

Alien_RageХит недели

RePack

Resident Evil 21

ИГРА 18+

pack

RePack

jed

!!Акция!!

Alien_Rage

RePack

fifa19

RePack

Assassins Creed: Odyssey

RePack

NEED FOR SPEED™ PAYBACK

4 сезон

9 сезон

Бесстыжие 9 сезон

Все сериалы

все сериалы на PB.wtf

RePack

FAR CRY 5
  

Неуловимые (Артем Аксененко) [2015 г., приключения, комедия, криминал, WEB-DLRip] pb.wtf

Неуловимые через торрент pb.wtf

Размер: 704 MB | Добавлен: 5 лет назад | Торрент скачан:608 раз
Скачать  

18-05-2015 18:24 Неуловимые Скачать торрент  

Неуловимые
Год выпуска: 2015
Страна: Россия / Ультра Стори
Жанр: приключения, комедия, криминал
Продолжительность: 01:26:17

Режиссер: Артем Аксененко



В ролях: Александра Бортич, Иван Шахназаров, Илья Маланин, Анвар Халилулаев, Денис Шведов, Евгений Мундум, Джемал Тетруашвили, Ксения Баскакова, Павел Юлку, Александр Сазонов

Описание: Ночью в центре Москвы сбита девушка, ей срочно нужна сложнейшая операция. Ее подруга Кира находит виновника, наглого и циничного олигарха Сергея Полянского, который отказывается признать свою вину и помочь пострадавшей. Ему плевать, у него все схвачено. В отчаянии Кира обращается за помощью к трем парням симпатизирующим ей — быковатому Феде, самоуверенному красавчику Артему и компьютерному гению Жене. Парни заключают между собой пакт — «поможем девушке, накажем негодяя, а потом решим, кто станет ее парнем».

Качество: WEB-DLRip
Формат: AVI
Видео кодек: XviD
Аудио кодек: MP3
Видео: 640x272 (2.35:1), 25 fps, XviD build 50 ~1002 kbps avg, 0.23 bit/pixel
Аудио: 48 kHz, MPEG Layer 3, 2 ch, ~128.00 kbps avg
скриншот   скриншот   скриншот   скриншот   скриншот   скриншот   скриншот   скриншот   скриншот   скриншот  

Общее
Полное имя : F:\кино\Неуловимые.2015.WEB-DLRip.avi
Формат : AVI
Формат/Информация : Audio Video Interleave
Размер файла : 704 Мбайт
Продолжительность : 1 ч. 26 м.
Общий поток : 1140 Кбит/сек
Программа кодирования : VirtualDubMod 1.5.10.3 | www.virtualdub-fr.org || (build 2550/release)
Библиотека кодирования : VirtualDubMod build 2550/release

Видео
Идентификатор : 0
Формат : MPEG-4 Visual
Профиль формата : Advanced Simple@L5
Параметр BVOP формата : 2
Параметр QPel формата : Нет
Параметр GMC формата : Без точки перехода
Параметр матрицы формата : Default (H.263)
Идентификатор кодека : XVID
Идентификатор кодека/Подсказка : XviD
Продолжительность : 1 ч. 26 м.
Битрейт : 1002 Кбит/сек
Ширина : 640 пикселей
Высота : 272 пикселя
Соотношение сторон : 2,35:1
Частота кадров : 25,000 кадров/сек
Цветовое пространство : YUV
Субдискретизация насыщенности : 4:2:0
Битовая глубина : 8 бит
Тип развёртки : Прогрессивная
Метод сжатия : С потерями
Бит/(Пиксели*Кадры) : 0.230
Размер потока : 619 Мбайт (88%)
Библиотека кодирования : XviD 1.2.1 (UTC 2008-12-04)

Аудио
Идентификатор : 1
Формат : MPEG Audio
Версия формата : Version 1
Профиль формата : Layer 3
Режим : Joint stereo
Расширение режима : MS Stereo
Идентификатор кодека : 55
Идентификатор кодека/Подсказка : MP3
Продолжительность : 1 ч. 26 м.
Вид битрейта : Постоянный
Битрейт : 128 Кбит/сек
Каналы : 2 канала
Частота : 48,0 КГц
Метод сжатия : С потерями
Размер потока : 79,0 Мбайт (11%)
Выравнивание : Соединение по промежуткам
Продолжительность промежутка : 40 мс. (1,00 видеокадр)
Время предзагрузки промежутка : 504 мс.
Библиотека кодирования : LAME3.99r
Настройки программы : -m j -V 4 -q 2 -lowpass 17 -b 128

pb.wtf



Скачать Неуловимые через торрент http://pic1.kartinco.top/images/10/jjg2c.jpg Скачать фильм Неуловимые через торрент бесплантно в хорошем качестве Описание: Ночью в центре Москвы сбита девушка, ей срочно нужна сложнейшая операция. Ее подруга Кира находит виновника, наглого и циничного ... 8.4 10 17
Торрент: Зарегистрирован [2015-05-18 18:24] · скачан: 608 раз
Статус: √ проверено
Размер: 704 MB
Как cкачать? Как скачать Неуловимые через торрент | qTorrent

% Раздел Тема Автор DL S | L
Русские порно фильмы [ 3.1 GB ] Неуловимые мстители [2004 Feature Parody Anal Sex Lesbians DVD-Remux] Леонид Ильич Скачать
1 | 0
Русские порно фильмы [ 1.36 GB ] Неуловимые мстители снова в бою [2004 Feature Parody Young DVDRip] Скорпион1976 Скачать
6 | 0
Наши сериалы [ 5.24 GB ] Неуловимые / Серия 1 - 8 из 8 / [2018 SATRip] oleg8 Скачать
1 | 0
Наши сериалы [ 18.29 GB ] Неуловимые / Сезон: 1 / Серии: 1-8 из 8 [2018 HDTV 1080p] [Русский] R.G.Generalfilm White Smoke Скачать
1 | 0
Наши сериалы [ 5.09 GB ] Неуловимые / Сезон: 1 / Серии: 1-8 из 8 [2018 WEB-DLRip] bober100 Скачать
1 | 0
Наши сериалы [ 14.6 GB ] Неуловимые / Сезон: 1 / Серии: 1-8 из 8 [2018 WEB-DL 1080p] bober100 Скачать
1 | 0
T Наши фильмы (HD, WEB-DL 720p, 1080p) [ 3.01 GB ] Неуловимые: Джекпот [2016 WEB-DL 1080p] -Lexx- Скачать
1 | 0

28-11-2019 20:33  

Отключить всю рекламу на сайте

    Дорогой пользователь! Огромная просьба, поблагодарите релизера, оцените раздачу и оставьте свои комментарий, если Вы скачали Неуловимые через торрент бесплатно! Внесите свою лепту в развитие PiratBit!
    Комментировать посты могут только пользователи прошедшие не сложную регистрацию
    Показать сообщения:    

    Неуловимые через торрент
    Скачать бесплатно Неуловимые
    Неуловимые скачать торрент
    Неуловимые смотреть онлайн
    Cкачать фильм Неуловимые бесплатно
    Неуловимые скачать торрент в хорошем качестве
    Неуловимые смотреть онлайн бесплатно в хорошем качестве


    Вы не можете начинать темы
    Вы не можете отвечать на сообщения
    Вы не можете редактировать свои сообщения
    Вы не можете удалять свои сообщения
    Вы не можете голосовать в опросах
    Вы не можете прикреплять файлы к сообщениям
    Вы можете скачивать файлы