Ссылка на приватное зеркало нашего сайта всего за 1$. Внимание количество ограничено!!!

2 сезон

iTunes

1 сезон

1

iTunes

iTunes

iTunes

1 сезон

RePack

30

ИГРА 18+

pack

ВАЖНО

!!Акция!!

Alien_RageХит недели

RePack

MK11
pack

Забери бонус

RePack

jed

!!Акция!!

Alien_Rage

RePack

fifa19

RePack

Assassins Creed: Odyssey

RePack

NEED FOR SPEED™ PAYBACK

4 сезон

9 сезон

Бесстыжие 9 сезон

Все сериалы

все сериалы на PB.wtf

RePack

FAR CRY 5
  

Моя девушка – зомби / Burying the Ex (Джо Данте ) [2014, ужасы, комедия, DVDRip, Любительский (двухголосый) [ColdFilm] pb.wtf

Моя девушка – зомби через торрент pb.wtf

Размер: 1.15 GB | Добавлен: 5 лет 5 мес. назад | Торрент скачан:147 раз
Скачать  

18-05-2015 20:44 Моя девушка – зомби Скачать торрент  


Моя девушка – зомби / Burying the Ex


ИНФОРМАЦИЯ:
Год выпуска:2014
Страна: США
Жанр: ужасы, комедия
Продолжительность: 01:26:15
Перевод: Любительский (двухголосый)
Режиссер: Джо Данте

В Ролях:


Антон Ельчин (Max), Эшли Грин (Evelyn), Александра Даддарио (Olivia), Оливер Купер (Travis), Озиома Акага (Kat), Марк Алан Браун (Goth Bartender), Эрика Боуи (Travis' Girl), Гэбриэлль Кристиан (Coco), Арчи Хан (Chuck), Томоко Карина (Shopping Girl), Стефани Кениг (Kendra), Wyndoline Landry (Demetria)

Описание:
Фильм рассказывает о Максе и Эвелин, отношения которых сильно портятся после того, как они начинают жить вместе. Макс обнаруживает, что Эвелин - упрямая и привыкшая всех контролировать и всеми командовать телка, но боится разрывать с ней отношения. Судьба помогает ему в этой сложной жизненной ситуации: вследствие нелепой случайности Эвелин погибает, и Макс начинает жить полной жизнью. Вскоре он знакомится с Оливией и даже готовится начать с ней совместную жизнь, но Эвелин решает восстать из могилы и вернуть своего бойфренда любой ценой, даже если для этого ей придется его самого превратить в зомби.

  • Мировая премьера:4 сентября 2014

    ТЕХ.ДАННЫЕ:
    Качество: DVDRip
    Формат: AVI
    Видео кодек: xvid
    Аудио кодек: MP3
    Видео: xvid, 720x304 (2.35:1), 1674 kbps, 23,976 fps, 0,311 bpp
    Аудио: MP3 / 2.0 / 48 kHz / 192 kbps /



    Код:

    General
    Complete name                            : D:\Торенты\Zombie.2014.L2.DVDRip.avi
    Format                                   : AVI
    Format/Info                              : Audio Video Interleave
    File size                                : 1.15 GiB
    Duration                                 : 1h 26mn
    Overall bit rate                         : 1 908 Kbps
    Writing application                      : Lavf54.63.104

    Video
    ID                                       : 0
    Format                                   : xvid
    Codec ID                                 : xvid
    Duration                                 : 1h 26mn
    Bit rate                                 : 1674Kbps
    Width                                    : 720 pixels
    Height                                   : 304 pixels
    Display aspect ratio                     : 2.35:1
    Frame rate                               : 23.976 fps
    Bits/(Pixel*Frame)                       : 0.311
    Stream size                              : 1 007 MiB (86%)

    Audio
    ID                                       : 1
    Format                                   : MPEG Audio
    Format version                           : Version 1
    Format profile                           : Layer 3
    Mode                                     : Joint stereo
    Codec ID                                 : 55
    Codec ID/Hint                            : MP3
    Duration                                 : 1h 26mn
    Bit rate mode                            : Constant
    Bit rate                                 : 192 Kbps
    Channel(s)                               : 2 channels
    Sampling rate                            : 48.0 KHz
    Compression mode                         : Lossy
    Stream size                              : 118 MiB (10%)
    Alignment                                : Aligned on interleaves
    Writing library                          : LAME3.99.5

    Скриншоты:


    © Оформление by Ворон
    pb.wtf



  • Скачать Моя девушка – зомби через торрент http://s019.radikal.ru/i634/1505/78/a6d01e925258.png Скачать фильм Моя девушка – зомби через торрент бесплантно в хорошем качестве Описание: Фильм рассказывает о Максе и Эвелин, отношения которых сильно портятся после того, как они начинают жить вместе. Макс ... 8.6 10 7
    Торрент: Зарегистрирован [2015-05-18 20:44] · скачан: 147 раз
    Статус: T временная
    Размер: 1.15 GB
    Как cкачать? Как скачать Моя девушка – зомби через торрент | qTorrent

    % Раздел Тема Автор DL S | L
    T Фильмы 2014 (Звук TS, Cam, VO, DVO) [ 1.46 GB ] Моя девушка – зомби / Burying the Ex [2014 BDRip Любительский [ColdFilm] Twi7ter Скачать
    1 | 0
    T Фильмы 2014 (Звук TS, Cam, VO, DVO) [ 1.37 GB ] Моя девушка – зомби / Burying the Ex [2014 HDRip Любительский [ColdFilm] Ворон Скачать
    1 | 0
    T Фильмы [HD 720p, 1080p] (Звук Cam, VO, DVO) [ 4.49 GB ] Моя девушка – зомби / Burying the Ex [2014 BDRip 720p Любительский [ColdFilm] Ворон Скачать
    1 | 0

    28-11-2019 20:33  

    Отключить всю рекламу на сайте

      Дорогой пользователь! Огромная просьба, поблагодарите релизера, оцените раздачу и оставьте свои комментарий, если Вы скачали Моя девушка – зомби через торрент бесплатно! Внесите свою лепту в развитие PiratBit!
      Комментировать посты могут только пользователи прошедшие не сложную регистрацию
      Показать сообщения:    

      Моя девушка – зомби через торрент
      Скачать бесплатно Моя девушка – зомби
      Моя девушка – зомби скачать торрент
      Моя девушка – зомби смотреть онлайн
      Cкачать фильм Моя девушка – зомби бесплатно
      Моя девушка – зомби скачать торрент в хорошем качестве
      Моя девушка – зомби смотреть онлайн бесплатно в хорошем качестве


      Вы не можете начинать темы
      Вы не можете отвечать на сообщения
      Вы не можете редактировать свои сообщения
      Вы не можете удалять свои сообщения
      Вы не можете голосовать в опросах
      Вы не можете прикреплять файлы к сообщениям
      Вы можете скачивать файлы