Всегда рабочее зеркало без VPN и Proxy просто перед .vidak.icu напиши любое слово или цифру, Пример http://yxjg.vidak.icu

MVO

Лицензия

1 сезон

1

1 сезон

iTunes

1 сезон

13

1 сезон

Deluxe

pack

Рекомендуем

Пиратка

30

ВАЖНО

RePack

MK11

RePack

jed

RePack

fifa19

RePack

RDR2

RePack

NEED FOR SPEED™ PAYBACK

Кинопоиск HD

6 сезон

 Острые козырьки 6 сезон

Все сериалы

все сериалы на PB.wtf

RePack

FAR CRY 5
  
Magnet ссылка

Чёрная река / Сезон: 1 / Серии: 1-8 из 8 (Стас Иванов) [2015, Россия, детектив,мистика, SATRip-AVC] pb.wtf

Чёрная река через торрент pb.wtf

Размер: 3.28 GB | Добавлен: 7 лет 1 мес. назад | Торрент скачан:421 раз
Смотреть онлайн Чёрная река | Скачать    Ребята, помогите собрать деньги на оплату серверов!!!

19-05-2015 01:36 Чёрная река Скачать торрент  

Чёрная река Год выпуска: 2015
Производство: Россия,НТВКино,Студия "Сокол"
Жанр: детектив,мистика
Продолжительность: ~00:45:30 (серия)
Субтитры: нет

Режиссёр: Стас Иванов

В ролях: Павел Трубинер, Анастасия Стежко, Владимир Селезнёв (II), Кирилл Каганович, Семён Шкаликов, Антонина Комиссарова, Павел Делонг, Ерболат Тогузаков, Валерий Панков, Дарья Повереннова, Владимир Матвеев, Андрей Филиппак, Анастасия Сорокина, Михаил Гаврилов (II), Роза Хайруллина, Дмитрий Лавров (III), Юрий Цурило, Глеб Степан Каллистов, Максим Меркулов, Владимир Устюгов, Игорь Климов, Сергей Гузеев, Яна Чигир, Артём Ионин, Дмитрий Гусев, Арсен Атоян, Юрий Круглов

Описание: Тихую, размеренную жизнь небольшого сибирского городка Белогорска потрясает таинственное исчезновение целой вахты нефтяников, работающих на одном из близлежащих месторождений. Владеющая месторождением нефтяная компания «Байкал-нефть» пытается скрыть факт исчезновения своих сотрудников, однако город уже наполнился слухами о том, что на рабочих было совершено нападение. Действия полиции сковывает весьма конкретная директива из столицы – замять дело.В Белогорск приезжает внештатный сотрудник компании «Байкал-нефть» Алексей Ковалев, перед которым стоит задача разобраться в случившемся.Среди всех местных жителей особенное внимание Ковалева приковывает его новая соседка Лена, учительница в местном поселке, у которой несколько лет назад в тайге пропал муж. Лена родом из Москвы, где ее ждут родители и друзья. Почему эта хрупкая на вид девушка все еще здесь?Ковалев начинает понимать, что недавнее исчезновение нефтяников и пропажа мужа Лены - Сергея, как-то связаны между собой. Лена начинает чувствовать, что с появлением Ковалева она впервые за долгие два года близка к разгадке исчезновения Сергея, но готова ли Лена узнать правду?..



Качество: SATRip-AVC
Формат: MKV
Видео кодек: AVC
Аудио кодек: AC3
Видео: MPEG4 Video (H264), 720x400, 25fps,1331 Kbps, bit/pixel 0.155
Аудио: AC3 48000Hz, stereo, 192kbps,2 ch
Общее
Уникальный идентификатор : 172883217487938115894952251712795375912 (0x821018B71EF2F50589C68B844904F928)
Полное имя : F:\Черная река\01 серия.mkv
Формат : Matroska
Версия формата : Version 2
Размер файла : 436 Мбайт
Продолжительность : 45 м.
Общий поток : 1331 Кбит/сек
Дата кодирования : UTC 2015-05-19 01:10:31
Программа кодирования : mkvmerge v7.6.0 ('Garden of Dreams') 32bit built on Feb 11 2015 00:18:47
Библиотека кодирования : libebml v1.3.1 + libmatroska v1.4.2

Видео
Идентификатор : 1
Формат : AVC
Формат/Информация : Advanced Video Codec
Профиль формата : High@L3.1
Параметр CABAC формата : Да
Параметр ReFrames формата : 9 кадров
Идентификатор кодека : V_MPEG4/ISO/AVC
Продолжительность : 45 м.
Битрейт : 1113 Кбит/сек
Ширина : 720 пикселей
Высота : 400 пикселей
Соотношение сторон : 16:9
Режим частоты кадров : Постоянный
Частота кадров : 25,000 кадров/сек
Цветовое пространство : YUV
Субдискретизация насыщенности : 4:2:0
Битовая глубина : 8 бит
Тип развёртки : Прогрессивная
Бит/(Пиксели*Кадры) : 0.155
Размер потока : 364 Мбайт (84%)
Библиотека кодирования : x264 core 144 r2525 40bb568
Настройки программы : cabac=1 / ref=9 / deblock=1:-3:-3 / analyse=0x3:0x113 / me=umh / subme=9 / psy=1 / psy_rd=1.00:0.20 / mixed_ref=1 / me_range=32 / chroma_me=0 / trellis=1 / 8x8dct=1 / cqm=0 / deadzone=21,11 / fast_pskip=1 / chroma_qp_offset=-3 / threads=6 / lookahead_threads=1 / sliced_threads=0 / nr=0 / decimate=0 / interlaced=0 / bluray_compat=0 / constrained_intra=0 / bframes=9 / b_pyramid=2 / b_adapt=1 / b_bias=0 / direct=1 / weightb=1 / open_gop=0 / weightp=2 / keyint=240 / keyint_min=24 / scenecut=40 / intra_refresh=0 / rc_lookahead=40 / rc=crf / mbtree=1 / crf=18.0 / qcomp=0.60 / qpmin=0 / qpmax=69 / qpstep=4 / ip_ratio=1.40 / aq=1:1.00
Default : Да
Forced : Нет
Основные цвета : BT.601 PAL
Характеристики трансфера : BT.470 System B, BT.470 System G
Коэффициенты матрицы : BT.601
colour_range : Limited

Аудио
Идентификатор : 2
Формат : AC-3
Формат/Информация : Audio Coding 3
Расширение режима : CM (complete main)
Параметр Endianness формата : Big
Идентификатор кодека : A_AC3
Продолжительность : 45 м.
Вид битрейта : Постоянный
Битрейт : 192 Кбит/сек
Каналы : 2 канала
Расположение каналов : Front: L R
Частота : 48,0 КГц
Битовая глубина : 16 бит
Метод сжатия : С потерями
Размер потока : 62,8 Мбайт (14%)
Default : Да
Forced : Нет
Внимание! Раздача ведётся путём добавления новых серий; при каждом добавлении создаётся новый торрент.
Чтобы начать докачку новой серии, пользователям необходимо сделать следующее:
1. Остановить скачивание;
2. Удалить старый торрент у себя из клиента (старые серии удалять не надо);
3. Скачать новый торрент и запустить его у себя в клиенте вместо старого, при этом указать клиенту путь в старую папку куда и должно происходить скачивание новых серий. Ваш клиент при этом должен произвести хеширование (проверку) старой папки и будет докачивать только те серии, которых у вас ещё нет. Старые серии при этом не удаляются, а продолжают раздаваться! Eсли вы уже удалили старые серии, то предотвратить повторную закачку старых серий можно, отжав галочку в соответствующих местах при запуске нового торрента.
Добавлена 7-8 серия.pb.wtf



Скачать Чёрная река через торрент https://pic1.kartinco.top/images/10/9d2ad.jpg Скачать, смотреть онлайн Чёрная река бесплантно в хорошем качестве Описание: Тихую, размеренную жизнь небольшого сибирского городка Белогорска потрясает таинственное исчезновение целой вахты нефтяников, ... 8.1 10 15
Info! Золотая раздача, скачанное не засчитывается.
Торрент: Зарегистрирован [2015-05-22 04:35] · скачан: 421 раз
Статус: √ проверено
Размер: 3.28 GB
Как cкачать? Как скачать Чёрная река через торрент | UTorrent

% Раздел Тема Автор DL S | L
Наши сериалы [ 4.3 GB ] Черная река / Сезон: 1 / Серии 1-8 из 8 [2014 Россия SATRip) GEKADOL Скачать
1 | 0

28-11-2019 20:33  

Отключить всю рекламу на сайте

    Дорогой пользователь! Огромная просьба, поблагодарите релизера, оцените раздачу и оставьте свои комментарий, если Вы скачали Чёрная река через торрент бесплатно!
    Комментировать посты могут только пользователи прошедшие не сложную регистрацию
    Показать сообщения:    

    Чёрная река через торрент
    Скачать бесплатно Чёрная река
    Чёрная река скачать торрент
    Чёрная река смотреть онлайн
    Cкачать фильм Чёрная река бесплатно
    Чёрная река скачать торрент в хорошем качестве
    Чёрная река смотреть онлайн бесплатно в хорошем качестве


    Вы не можете начинать темы
    Вы не можете отвечать на сообщения
    Вы не можете редактировать свои сообщения
    Вы не можете удалять свои сообщения
    Вы не можете голосовать в опросах
    Вы не можете прикреплять файлы к сообщениям
    Вы можете скачивать файлы