Ссылка на приватное зеркало нашего сайта всего за 1$. Внимание количество ограничено!!!

2 сезон

iTunes

1 сезон

1

2 сезон

2 сезон

iTunes

1 сезон

RePack

30

Новинка

ВАЖНО

ИГРА 18+

pack

RePack

MK11
pack

Забери бонус

RePack

jed

!!Акция!!

Alien_Rage

RePack

fifa19

RePack

Assassins Creed: Odyssey

RePack

NEED FOR SPEED™ PAYBACK

4 сезон

9 сезон

Бесстыжие 9 сезон

Все сериалы

все сериалы на PB.wtf

RePack

FAR CRY 5
  

Заложница 3 / Taken 3 (Оливье Мегатон / Olivier Megaton) [2014, Боевик, триллер, криминал, BDRip-AVC] [Расширенная версия] DUB Лицензия pb.wtf

Заложница 3 через торрент pb.wtf

Раздают: 2 [ 0 KB/s ]
Размер: 1.46 GB | Добавлен: 5 лет 6 мес. назад | Торрент скачан:1030 раз
Скачать  

16-04-2015 14:44 Заложница 3 Скачать торрент  

Заложница 3 / Taken 3
Год выпуска: 2014
Страна: Франция / EuropaCorp, M6 Films, Canal+ [fr], Ciné
Жанр: Боевик, триллер, криминал
Продолжительность: 01:55:18
Перевод: Дубляж [BD EUR]
Субтитры: Русские

Режиссер: Оливье Мегатон / Olivier Megaton

В ролях: Лиам Нисон, Мэгги Грэйс, Форест Уитакер, Сэм Спруэлл, Фамке Янссен, Дугрей Скотт, Дон Харви, Дилан Бруно, Лиленд Орсер, Дэвид Уоршофски, Джон Грайз, Джонни Уэстон, Эндрю Борба, Джуди Бичер, Эндрю Ховард, Седрик Сиротто, Катрин Дайер, Джимми Палумбо, Роберт Пралго, Тони Уильямс

Описание: Брайан Миллс — бывший правительственный агент, который не раз выходил из самых сложных ситуаций. Он является настоящим профессионалом своего дела и больше всего в жизни любит свою семью, ради которой готов на все. Оставив свое боевое прошлое он старается вести мирную жизнь, но, однажды, ему вновь приходится взяться за оружие. Неизвестные убивают его бывшую жену Лэнни и делают все так, чтобы главным подозреваемым в этом преступлении стал именно Брайан. Ему удается сбежать от полиции, после чего он пытается сделать все возможное, чтобы найти настоящего убийцу. Однако сделать это будет очень непросто, поскольку его преследует опытный детектив, от которого не смог уйти еще ни один преступник...



Качество: BDRip-AVC
Формат: MKV
Видео кодек: H.264
Аудио кодек: AC3
Видео: 912x382 (2,40:1), 23,976 fps, 1622 kbps, 0.194 bit/pixel
Аудио: 48 kHz, AC3 Dolby Digital, 2/0 (L,R) ch, 192.00 kbps

Релиз группы:
Автор рипа: potroks

Общее
Уникальный идентификатор : 251978090723072446523414218700148119383 (0xBD91370BE60D724BA423CD8E65B31757)
Полное имя : Zalozhnitca.3.2014.Extended.RUS.BDRip.x264.-HELLYWOOD.mkv
Формат : Matroska
Версия формата : Version 4 / Version 2
Размер файла : 1,46 Гбайт
Продолжительность : 1 ч. 55 м.
Общий поток : 1813 Кбит/сек
Название фильма : Taken 3 (2014) [Extended] - HELLYWOOD
Дата кодирования : UTC 2010-02-22 21:41:31
Программа кодирования : mkvmerge v5.8.0 ('No Sleep / Pillow') built on Sep 30 2012 10:57:14
Библиотека кодирования : libebml v1.3.0 + libmatroska v1.4.0

Видео
Идентификатор : 1
Формат : AVC
Формат/Информация : Advanced Video Codec
Профиль формата : High@L4.1
Параметр CABAC формата : Да
Параметр ReFrames формата : 12 кадров
Идентификатор кодека : V_MPEG4/ISO/AVC
Продолжительность : 1 ч. 55 м.
Битрейт : 1622 Кбит/сек
Ширина : 912 пикселей
Высота : 382 пикселя
Соотношение сторон : 2,40:1
Режим частоты кадров : Постоянный
Частота кадров : 23,976 кадра/сек
Цветовое пространство : YUV
Субдискретизация насыщенности : 4:2:0
Битовая глубина : 8 бит
Тип развёртки : Прогрессивная
Бит/(Пиксели*Кадры) : 0.194
Размер потока : 1,28 Гбайт (87%)
Заголовок : potroks
Библиотека кодирования : x264 core 130 r2273 b3065e6
Настройки программы : cabac=1 / ref=12 / deblock=1:-2:-2 / analyse=0x3:0x133 / me=umh / subme=11 / psy=1 / psy_rd=0.98:0.00 / mixed_ref=1 / me_range=48 / chroma_me=1 / trellis=2 / 8x8dct=1 / cqm=0 / deadzone=21,11 / fast_pskip=0 / chroma_qp_offset=-2 / threads=9 / lookahead_threads=6 / sliced_threads=0 / nr=0 / decimate=0 / interlaced=0 / bluray_compat=0 / constrained_intra=0 / bframes=13 / b_pyramid=2 / b_adapt=2 / b_bias=0 / direct=3 / weightb=1 / open_gop=0 / weightp=2 / keyint=250 / keyint_min=23 / scenecut=40 / intra_refresh=0 / rc_lookahead=60 / rc=2pass / mbtree=0 / bitrate=1622 / ratetol=1.0 / qcomp=0.70 / qpmin=0 / qpmax=69 / qpstep=4 / cplxblur=20.0 / qblur=0.5 / vbv_maxrate=50000 / vbv_bufsize=62500 / nal_hrd=none / ip_ratio=1.35 / pb_ratio=1.25 / aq=1:0.90
Язык : English
Default : Да
Forced : Нет

Аудио
Идентификатор : 2
Формат : AC-3
Формат/Информация : Audio Coding 3
Расширение режима : CM (complete main)
Параметр Endianness формата : Big
Идентификатор кодека : A_AC3
Продолжительность : 1 ч. 55 м.
Вид битрейта : Постоянный
Битрейт : 192 Кбит/сек
Каналы : 2 канала
Расположение каналов : Front: L R
Частота : 48,0 КГц
Битовая глубина : 16 бит
Метод сжатия : С потерями
Размер потока : 158 Мбайт (11%)
Заголовок : Dub | DD 2.0 @ 192 kbps - Blu-Ray EUR
Язык : Russian
Default : Да
Forced : Нет

Текст
Идентификатор : 3
Формат : UTF-8
Идентификатор кодека : S_TEXT/UTF8
Идентификатор кодека/Информация : UTF-8 Plain Text
Заголовок : iTunes
Язык : Russian
Default : Нет
Forced : Нет

Меню
00:00:00.000 : en:00:00:00.000
00:04:18.091 : en:00:04:18.091
00:10:12.820 : en:00:10:12.820
00:13:20.466 : en:00:13:20.466
00:15:44.986 : en:00:15:44.986
00:18:25.354 : en:00:18:25.354
00:23:18.814 : en:00:23:18.814
00:25:49.256 : en:00:25:49.256
00:27:34.861 : en:00:27:34.861
00:30:21.403 : en:00:30:21.403
00:33:01.146 : en:00:33:01.146
00:36:00.283 : en:00:36:00.283
00:38:17.795 : en:00:38:17.795
00:43:08.419 : en:00:43:08.419
00:46:46.428 : en:00:46:46.428
00:50:21.143 : en:00:50:21.143
00:55:00.338 : en:00:55:00.338
00:59:07.293 : en:00:59:07.293
01:02:49.641 : en:01:02:49.641
01:05:56.953 : en:01:05:56.953
01:07:13.863 : en:01:07:13.863
01:09:59.028 : en:01:09:59.028
01:14:26.086 : en:01:14:26.086
01:18:10.185 : en:01:18:10.185
01:22:19.518 : en:01:22:19.518
01:25:26.162 : en:01:25:26.162
01:29:38.206 : en:01:29:38.206
01:33:24.473 : en:01:33:24.473
01:37:07.571 : en:01:37:07.571
01:40:37.656 : en:01:40:37.656
01:46:48.443 : en:01:46:48.443
01:49:42.993 : en:01:49:42.993

pb.wtf



Скачать Заложница 3 через торрент http://pic.kartinco.top/images/11/4gjtz.jpg Скачать фильм Заложница 3 через торрент бесплантно в хорошем качестве Описание: Брайан Миллс — бывший правительственный агент, который не раз выходил из самых сложных ситуаций. Он является настоящим ... 9.4 10 34
Info! Золотая раздача, скачанное не засчитывается.
Торрент: Зарегистрирован [2015-05-19 11:57] · скачан: 1 030 раз
Статус: √ проверено
Размер: 1.46 GB
Как cкачать? Как скачать Заложница 3 через торрент | qTorrent

% Раздел Тема Автор DL S | L
Фильмы 2014 [DVDrip, WEB-DLRip, HDrip] [ 2.91 GB ] Заложница 3 / Taken 3 [2014 BDRip-AVC] [Расширенная версия] DUB potroks Скачать
1 | 0

28-11-2019 20:33  

Отключить всю рекламу на сайте

19-05-2015 14:17 Заложница 3 Скачать торрент  

ничё кинцо кстатиpb.wtf



    Дорогой пользователь! Огромная просьба, поблагодарите релизера, оцените раздачу и оставьте свои комментарий, если Вы скачали Заложница 3 через торрент бесплатно! Внесите свою лепту в развитие PiratBit!
    Комментировать посты могут только пользователи прошедшие не сложную регистрацию
    Показать сообщения:    

    Заложница 3 через торрент
    Скачать бесплатно Заложница 3
    Заложница 3 скачать торрент
    Заложница 3 смотреть онлайн
    Cкачать фильм Заложница 3 бесплатно
    Заложница 3 скачать торрент в хорошем качестве
    Заложница 3 смотреть онлайн бесплатно в хорошем качестве


    Вы не можете начинать темы
    Вы не можете отвечать на сообщения
    Вы не можете редактировать свои сообщения
    Вы не можете удалять свои сообщения
    Вы не можете голосовать в опросах
    Вы не можете прикреплять файлы к сообщениям
    Вы можете скачивать файлы