новый адрес
Мега распродажа FORZA HORIZON 4 ULTIMATE+ВСЕ DLC+ОНЛАЙН всего за 499р. 349 руб. (супер цена). Внимание количество ограничено!!!

iTunes

1+1

iTunes

мы

iTunes

1

iTunes

Чернобыль

iTunes

Ральф против интернета

Лицензия

ПШазам

Лицензия

Оно 2

Лицензия

30
pack

ВАЖНО

!!Акция!!

Alien_RageХит недели

RePack

Resident Evil 21

ИГРА 18+

pack

RePack

Metro:Exodus

!!Акция!!

Alien_Rage

RePack

fifa19

RePack

Assassins Creed: Odyssey

RePack

NEED FOR SPEED™ PAYBACK

3 сезон

9 сезон

Бесстыжие 9 сезон

Все сериалы

все сериалы на PB.wtf

RePack

FAR CRY 5
Ребята, катастрофически не хватает 1900р. для оплаты серверов за Октябрь (всвязи с блокировками трафик упал в 3 раза), 1-2р., выручайте.
  

Тридцать три (Георгий Данелия) [1965 г., комедия, DVDRip] pb.wtf

Тридцать три через торрент pb.wtf

Размер: 1.09 GB | Добавлен: 4 года 6 мес. назад | Торрент скачан:48 раз
Скачать  

19-05-2015 13:43 Тридцать три Скачать торрент  

Тридцать три
Год выпуска: 1965
Страна: СССР
Жанр: комедия
Продолжительность: 77 мин. / 01:17

Режиссер: Георгий Данелия
Продюссер: Юзеф Рогозовский
Сценарий: Георгий Данелия, Валентин Ежов, Виктор Конецкий

Бюджет: 22 апреля 1965
Премьера в мире: 22 апреля 1965

IMDB 7.30 (336)


В ролях: Евгений Леонов, Нонна Мордюкова, Любовь Соколова, Инна Чурикова, Геннадий Ялович, Николай Парфёнов, Виктор Авдюшко, Виллор Кузнецов, Савелий Крамаров, Владимир Басов

Описание: Зубной врач провинциального города Верхние Ямки сделал неожиданное научное открытие, обнаружив в полости рта пациента Ивана Сергеевича Травкина тридцать третий зуб. Изнывающего от боли Травкина повезли в Москву. Иван Сергеевич становится вначале пациентом сумасшедшего дома (благодаря завистникам), а затем — героем научной международной конференции и, наконец, пациентом профессора-стоматолога Брука...

Качество: DVDRip
Формат: AVI
Видео кодек: XviD
Аудио кодек: AC3
Видео: 1690 Кбит/сек 2,35:1 25,000 кадров/сек XviD 1.2.1 (UTC 2008-12-04) 704px × 304px
Аудио#1: 448 Кбит/сек, 48,0КГц, 16 бит, 6 каналов, AC-3
скриншот   скриншот   скриншот   скриншот   скриншот   скриншот  

Общее
Полное имя : C:\Users\sony\Downloads\33.1965.DVDRiр.avi
Формат : AVI
Формат/Информация : Audio Video Interleave
Размер файла : 1,09 Гбайт
Продолжительность : 1 ч. 12 м.
Общий поток : 2148 Кбит/сек
Режиссёр : zim2001
Программа кодирования : VirtualDubMod 1.5.10.2 (build 2540/release)
Библиотека кодирования : VirtualDubMod build 2540/release

Видео
Идентификатор : 0
Формат : MPEG-4 Visual
Профиль формата : Advanced Simple@L5
Параметр BVOP формата : 2
Параметр QPel формата : Нет
Параметр GMC формата : Без точки перехода
Параметр матрицы формата : Выборочная
Идентификатор кодека : XVID
Идентификатор кодека/Подсказка : XviD
Продолжительность : 1 ч. 12 м.
Битрейт : 1690 Кбит/сек
Ширина : 704 пикселя
Высота : 304 пикселя
Соотношение сторон : 2,35:1
Частота кадров : 25,000 кадров/сек
Цветовое пространство : YUV
Субдискретизация насыщенности : 4:2:0
Битовая глубина : 8 бит
Тип развёртки : Прогрессивная
Метод сжатия : С потерями
Бит/(Пиксели*Кадры) : 0.316
Размер потока : 878 Мбайт (79%)
Библиотека кодирования : XviD 1.2.1 (UTC 2008-12-04)

Аудио
Идентификатор : 1
Формат : AC-3
Формат/Информация : Audio Coding 3
Расширение режима : CM (complete main)
Параметр Endianness формата : Big
Идентификатор кодека : 2000
Продолжительность : 1 ч. 12 м.
Вид битрейта : Постоянный
Битрейт : 448 Кбит/сек
Каналы : 6 каналов
Расположение каналов : Front: L C R, Side: L R, LFE
Частота : 48,0 КГц
Битовая глубина : 16 бит
Метод сжатия : С потерями
Задержка видео : 281 мс.
Размер потока : 233 Мбайт (21%)
Выравнивание : Разделение по промежуткам
Продолжительность промежутка : 40 мс. (1,00 видеокадр)
Время предзагрузки промежутка : 500 мс.


Тридцать три скачать торрент


pb.wtf



Скачать Тридцать три через торрент http://pic.kartinco.top/images/11/ykk65.jpg Скачать фильм Тридцать три через торрент бесплантно в хорошем качестве Описание: Зубной врач провинциального города Верхние Ямки сделал неожиданное научное открытие, обнаружив в полости рта пациента Ивана ... 10 10 8
Info! Золотая раздача, скачанное не засчитывается.
Торрент: Зарегистрирован [2015-05-19 13:43] · скачан: 48 раз
Статус: √ проверено
Размер: 1.09 GB
Как cкачать? Как скачать Тридцать три через торрент | qTorrent

% Раздел Тема Автор DL S | L
Фильмы до 2000 г. [ 3.75 GB ] Тридцать девять ступенек / 39 ступеней / The Thirty-Nine Steps [1978 Screener > DVD] [Советская прокатная копия] killermax2013 Скачать
1 | 0
T Релизы по Парсеру [Игры, Сериалы и Фильмы и другое...] [ 1.38 GB ] Тридцать первый километр 2 / Km 31-2 [2016 WEB-DLRip MVO | Синема УС] sanekbest1 Скачать
1 | 0
Фантастика, фентези, мистика, ужасы [ 2 MB ] Роман Смеклоф / Тридцать один [FB2] Armstrong Скачать
1 | 0
Документальные фильмы и телепередачи [ 81 MB ] Удмуртское солнце тридцать три тысячи и лицензия для добровольца [2012 документальный WEBRip Оригинал] metanoia Скачать
1 | 0
Фильмы до 2000 г. [ 796 MB ] Тридцать две истории о Глене Гульде / Thirty Two Short Films About Glenn Gould [1993 DVDRip] VО Бирюков + Original + Sub Просто Скачать
1 | 0


>> Регистрируемся здесь <<






Отзывы и комментарии о схеме читаем и пишем здесь: ---> Отзывы и комментарии о схеме

Новые благодарочки в телеграм довольных пользователей:
скриншот   скриншот   скриншот   скриншот   скриншот
    Дорогой пользователь! Огромная просьба, поблагодарите релизера, оцените раздачу и оставьте свои комментарий, если Вы скачали Тридцать три через торрент бесплатно! Внесите свою лепту в развитие PiratBit!
    Комментировать посты могут только пользователи прошедшие не сложную регистрацию
    Показать сообщения:    

    Тридцать три через торрент
    Скачать бесплатно Тридцать три
    Тридцать три скачать торрент
    Тридцать три смотреть онлайн
    Cкачать фильм Тридцать три бесплатно
    Тридцать три скачать торрент в хорошем качестве
    Тридцать три смотреть онлайн бесплатно в хорошем качестве


    Вы не можете начинать темы
    Вы не можете отвечать на сообщения
    Вы не можете редактировать свои сообщения
    Вы не можете удалять свои сообщения
    Вы не можете голосовать в опросах
    Вы не можете прикреплять файлы к сообщениям
    Вы можете скачивать файлы