новый адрес
Мега распродажа FORZA HORIZON 4 ULTIMATE+ВСЕ DLC+ОНЛАЙН всего за 499р. 349 руб. (супер цена). Внимание количество ограничено!!!

iTunes

1+1

iTunes

мы

iTunes

1

iTunes

Чернобыль

iTunes

Ральф против интернета

Лицензия

ПШазам

Лицензия

Оно 2

Лицензия

30
pack

ВАЖНО

!!Акция!!

Alien_RageХит недели

RePack

Resident Evil 21

ИГРА 18+

pack

RePack

Metro:Exodus

!!Акция!!

Alien_Rage

RePack

fifa19

RePack

Assassins Creed: Odyssey

RePack

NEED FOR SPEED™ PAYBACK

3 сезон

9 сезон

Бесстыжие 9 сезон

Все сериалы

все сериалы на PB.wtf

RePack

FAR CRY 5
Ребята, катастрофически не хватает 1900р. для оплаты серверов за Октябрь (всвязи с блокировками трафик упал в 3 раза), 1-2р., выручайте.
  

Праздник Нептуна (Юрий Мамин, Юрий Афанасьев, Наталья Шилок) [1986 г., комедия, TVRip] pb.wtf

Праздник Нептуна через торрент pb.wtf

Размер: 743 MB | Добавлен: 4 года 6 мес. назад | Торрент скачан:28 раз
Скачать  

19-05-2015 14:43 Праздник Нептуна Скачать торрент  

Праздник Нептуна
Год выпуска: 1986
Страна: СССР
Жанр: комедия
Продолжительность: 43 минуты

Режиссер: Юрий Мамин, Юрий Афанасьев, Наталья Шилок
Продюссер: Евгения Дихнова
Сценарий: Владимир Вардунас, Игорь Агеев, Николай Студнев

IMDB 7.30 (97)


В ролях: Виктор Михайлов, Виолетта Жухимович, Роберт Курляндчик, Яков Степанов, Виктор Цепаев, Анатолий Быстров, Иван Криворучко, Людмила Аринина, Елена Капица, Владимир Еремин

Описание: Директор Дома культуры запланировал на 1 января праздник Нептуна с участием 150 «моржей». Эта цифра настолько поразила областное начальство, что в село на праздник была направлена шведская делегация, которой надо было теперь показывать праздник во всей красе...

Качество: TVRip
Формат: AVI
Видео кодек: DivX
Аудио кодек: MP3
Видео: 2270 Кбит/сек 4:3 25,000 кадров/сек DivX 6.8.3-6.8.4 (UTC 2008-06-07) 704px × 528px
Аудио#1: 128 Кбит/сек, 48 kHz, MP3, 2 канала
скриншот   скриншот   скриншот   скриншот   скриншот   скриншот   скриншот  

Общее
Полное имя : C:\Users\sony\Downloads\Prazdnik_Neptuna_DVDRip.avi
Формат : AVI
Формат/Информация : Audio Video Interleave
Размер файла : 743 Мбайт
Продолжительность : 43 м.
Общий поток : 2408 Кбит/сек
Программа кодирования : VirtualDubModRus 1.5.10.2 (build 2542/release)
Библиотека кодирования : VirtualDubMod build 2542/release

Видео
Идентификатор : 0
Формат : MPEG-4 Visual
Параметр BVOP формата : 1
Параметр QPel формата : Нет
Параметр GMC формата : Без точки перехода
Параметр матрицы формата : Default (H.263)
Режим смешивания : Сжатый битовый поток
Идентификатор кодека : DX50
Идентификатор кодека/Подсказка : DivX 5
Продолжительность : 43 м.
Битрейт : 2270 Кбит/сек
Ширина : 704 пикселя
Высота : 528 пикселей
Соотношение сторон : 4:3
Частота кадров : 25,000 кадров/сек
Цветовое пространство : YUV
Субдискретизация насыщенности : 4:2:0
Битовая глубина : 8 бит
Тип развёртки : Прогрессивная
Метод сжатия : С потерями
Бит/(Пиксели*Кадры) : 0.244
Размер потока : 701 Мбайт (94%)
Библиотека кодирования : DivX 6.8.3-6.8.4 (UTC 2008-06-07)

Аудио
Идентификатор : 1
Формат : MPEG Audio
Версия формата : Version 1
Профиль формата : Layer 3
Режим : Joint stereo
Расширение режима : MS Stereo
Идентификатор кодека : 55
Идентификатор кодека/Подсказка : MP3
Продолжительность : 43 м.
Вид битрейта : Постоянный
Битрейт : 128 Кбит/сек
Каналы : 2 канала
Частота : 48,0 КГц
Метод сжатия : С потерями
Размер потока : 39,5 Мбайт (5%)
Выравнивание : Соединение по промежуткам
Продолжительность промежутка : 40 мс. (1,00 видеокадр)
Время предзагрузки промежутка : 504 мс.
Библиотека кодирования : LAME3.97
Настройки программы : -m j -V 4 -q 1 -b 128


Праздник Нептуна скачать торрент


pb.wtf



Скачать Праздник Нептуна через торрент http://pic.kartinco.top/images/11/ta3kl.jpg Скачать фильм Праздник Нептуна через торрент бесплантно в хорошем качестве Описание: Директор Дома культуры запланировал на 1 января праздник Нептуна с участием 150 «моржей». Эта цифра настолько поразила областное ... 10 10 7
Info! Золотая раздача, скачанное не засчитывается.
Торрент: Зарегистрирован [2015-05-19 14:43] · скачан: 28 раз
Статус: √ проверено
Размер: 743 MB
Как cкачать? Как скачать Праздник Нептуна через торрент | qTorrent


>> Регистрируемся здесь <<






Отзывы и комментарии о схеме читаем и пишем здесь: ---> Отзывы и комментарии о схеме

Новые благодарочки в телеграм довольных пользователей:
скриншот   скриншот   скриншот   скриншот   скриншот
    Дорогой пользователь! Огромная просьба, поблагодарите релизера, оцените раздачу и оставьте свои комментарий, если Вы скачали Праздник Нептуна через торрент бесплатно! Внесите свою лепту в развитие PiratBit!
    Комментировать посты могут только пользователи прошедшие не сложную регистрацию
    Показать сообщения:    

    Праздник Нептуна через торрент
    Скачать бесплатно Праздник Нептуна
    Праздник Нептуна скачать торрент
    Праздник Нептуна смотреть онлайн
    Cкачать фильм Праздник Нептуна бесплатно
    Праздник Нептуна скачать торрент в хорошем качестве
    Праздник Нептуна смотреть онлайн бесплатно в хорошем качестве


    Вы не можете начинать темы
    Вы не можете отвечать на сообщения
    Вы не можете редактировать свои сообщения
    Вы не можете удалять свои сообщения
    Вы не можете голосовать в опросах
    Вы не можете прикреплять файлы к сообщениям
    Вы можете скачивать файлы