Ссылка на приватное зеркало нашего сайта всего за 1$. Внимание количество ограничено!!!

2 сезон

iTunes

1 сезон

1

iTunes

iTunes

iTunes

1 сезон

RePack

30

ИГРА 18+

pack

ВАЖНО

!!Акция!!

Alien_RageХит недели

RePack

MK11
pack

Забери бонус

RePack

jed

!!Акция!!

Alien_Rage

RePack

fifa19

RePack

Assassins Creed: Odyssey

RePack

NEED FOR SPEED™ PAYBACK

4 сезон

9 сезон

Бесстыжие 9 сезон

Все сериалы

все сериалы на PB.wtf

RePack

FAR CRY 5
  

Белые поселенцы / White Settlers (Семен Халлиган) [2014 г., ужасы, триллер, детектив, DVDRip, Любительский двухголосый "den904 & DeadSno"] pb.wtf

Белые поселенцы через торрент pb.wtf

Размер: 705 MB | Добавлен: 5 лет 5 мес. назад | Торрент скачан:95 раз
Скачать  

20-05-2015 17:58 Белые поселенцы Скачать торрент  

Белые поселенцы / White Settlers
Год выпуска: 2014
Страна: Великобритания / Not a Number
Жанр: ужасы, триллер, детектив
Продолжительность: 01:19:29
Перевод: Любительский двухголосый (den904 & DeadSno)

Режиссер: Семен Халлиган

IMDB 5.30 (21)


В ролях: Поллианна МакИнтош, Ли Уильямс, Джоэнн Митчелл, Джеймс МакКриди, Доминик Кэй

Описание: Это первая ночь Эда и Сары в их новом доме, который находится на отшибе у шотландской границы. Этот переезд должен был стать для них новым началом, после тяжелой жизни в Лондоне. Поначалу все идет хорошо, но с наступлением темноты Сару начинают мучать подозрения, что кроме них в округе есть кто-то еще. Эд отправляется проверить так ли это, и в результате вечер превращается в кошмар.

Качество: DVDRip
Формат: AVI
Видео кодек: XviD
Аудио кодек: MP3
Видео: 640x352 (1.82:1), 25 fps, XviD build 50 ~1101 kbps avg, 0.20 bit/pixel
Аудио: 48 kHz, MPEG Layer 3, 2 ch, ~128.00 kbps avg
скриншот   скриншот   скриншот   скриншот   скриншот   скриншот  

Общее
Полное имя : F:\кино\Белые поселенцы.2014.L2.DVDRip.700MB.avi
Формат : AVI
Формат/Информация : Audio Video Interleave
Размер файла : 705 Мбайт
Продолжительность : 1 ч. 19 м.
Общий поток : 1240 Кбит/сек
Программа кодирования : VirtualDubMod 1.5.10.3 | www.virtualdub-fr.org || (build 2550/release)
Библиотека кодирования : VirtualDubMod build 2550/release

Видео
Идентификатор : 0
Формат : MPEG-4 Visual
Профиль формата : Advanced Simple@L5
Параметр BVOP формата : 2
Параметр QPel формата : Нет
Параметр GMC формата : Без точки перехода
Параметр матрицы формата : Default (H.263)
Идентификатор кодека : XVID
Идентификатор кодека/Подсказка : XviD
Продолжительность : 1 ч. 19 м.
Битрейт : 1102 Кбит/сек
Ширина : 640 пикселей
Высота : 352 пикселя
Соотношение сторон : 16:9
Частота кадров : 25,000 кадров/сек
Цветовое пространство : YUV
Субдискретизация насыщенности : 4:2:0
Битовая глубина : 8 бит
Тип развёртки : Прогрессивная
Метод сжатия : С потерями
Бит/(Пиксели*Кадры) : 0.196
Размер потока : 626 Мбайт (89%)
Библиотека кодирования : XviD 1.2.1 (UTC 2008-12-04)

Аудио
Идентификатор : 1
Формат : MPEG Audio
Версия формата : Version 1
Профиль формата : Layer 3
Режим : Joint stereo
Расширение режима : MS Stereo
Идентификатор кодека : 55
Идентификатор кодека/Подсказка : MP3
Продолжительность : 1 ч. 19 м.
Вид битрейта : Постоянный
Битрейт : 128 Кбит/сек
Каналы : 2 канала
Частота : 48,0 КГц
Метод сжатия : С потерями
Размер потока : 72,8 Мбайт (10%)
Выравнивание : Соединение по промежуткам
Продолжительность промежутка : 40 мс. (1,00 видеокадр)
Время предзагрузки промежутка : 504 мс.
Библиотека кодирования : LAME3.99r
Настройки программы : -m j -V 4 -q 2 -lowpass 17 -b 128

pb.wtf



Скачать Белые поселенцы через торрент http://pic1.kartinco.top/images/10/6bvtx.jpg Скачать фильм Белые поселенцы через торрент бесплантно в хорошем качестве Описание: Это первая ночь Эда и Сары в их новом доме, который находится на отшибе у шотландской границы. Этот переезд должен был стать для ... 9.3 10 6
Торрент: Зарегистрирован [2015-05-20 17:58] · скачан: 95 раз
Статус: T временная
Размер: 705 MB
Как cкачать? Как скачать Белые поселенцы через торрент | qTorrent

28-11-2019 20:33  

Отключить всю рекламу на сайте

20-05-2015 20:16 Белые поселенцы Скачать торрент  

что за спойлеры на 6 скрине?... sarcasticpb.wtf



20-05-2015 21:09 Белые поселенцы Скачать торрент  

Rivilio писал(а):

что за спойлеры на 6 скрине?... sarcastic

Спартачи и до туда добралисьpb.wtf



21-05-2015 06:23 Белые поселенцы Скачать торрент  

Режиссер Семён Хулллиган! pb.wtf



21-05-2015 06:56 Белые поселенцы Скачать торрент  

zra писал(а):

Rivilio писал(а):

что за спойлеры на 6 скрине?... sarcastic

Спартачи и до туда добрались

Ну точно, на 4 скрине и шарф на бабе спартачечный, Мoskawia отчетливо читается... sarcasticpb.wtf



    Дорогой пользователь! Огромная просьба, поблагодарите релизера, оцените раздачу и оставьте свои комментарий, если Вы скачали Белые поселенцы через торрент бесплатно! Внесите свою лепту в развитие PiratBit!
    Комментировать посты могут только пользователи прошедшие не сложную регистрацию
    Показать сообщения:    

    Белые поселенцы через торрент
    Скачать бесплатно Белые поселенцы
    Белые поселенцы скачать торрент
    Белые поселенцы смотреть онлайн
    Cкачать фильм Белые поселенцы бесплатно
    Белые поселенцы скачать торрент в хорошем качестве
    Белые поселенцы смотреть онлайн бесплатно в хорошем качестве


    Вы не можете начинать темы
    Вы не можете отвечать на сообщения
    Вы не можете редактировать свои сообщения
    Вы не можете удалять свои сообщения
    Вы не можете голосовать в опросах
    Вы не можете прикреплять файлы к сообщениям
    Вы можете скачивать файлы