Всегда рабочее зеркало без VPN и Proxy просто перед .vidak.icu напиши любое слово или цифру, Пример http://ozvl.vidak.icu

Лицензия

MVO

1 сезон

1

1 сезон

iTunes

1 сезон

13

1 сезон

Deluxe

pack

Рекомендуем

Repack

30

ВАЖНО

RePack

MK11

RePack

jed

RePack

fifa19

RePack

RDR2

RePack

NEED FOR SPEED™ PAYBACK

Кинопоиск HD

6 сезон

 Острые козырьки 6 сезон

Все сериалы

все сериалы на PB.wtf

RePack

FAR CRY 5
  
Magnet ссылка

Отдельный номер / Private Number (ЛазРаэль Лисон / LazRael Lison) [2014, США, ужасы, триллер, детектив, WEB-DLRip] DVO [Coldfilm] pb.wtf

Отдельный номер через торрент pb.wtf

Размер: 1.36 GB | Добавлен: 7 лет 2 мес. назад | Торрент скачан:209 раз
Смотреть онлайн Отдельный номер | Скачать    Ребята, помогите собрать деньги на оплату серверов!!!

21-05-2015 08:33 Отдельный номер Скачать торрент  

Отдельный номер / Private Number
«Don't Pick up...»


  • Год выпуска: 2014
  • Страна: США
  • Жанр: ужасы, триллер, детектив
  • Продолжительность: 01:37:16
  • Перевод: Любительский (двухголосый) [Coldfilm]

  • Режиссер: ЛазРаэль Лисон / LazRael Lison
  • В ролях:

    Джадд Нельсон (Sheriff Stance), Том Сайзмор (Jeff), Николь Том (Katherine Lane), Хэл Озсэн (Michael Lane), Джоэль Майкли (Roland), Рэй Стоуни (Deputy Taylor), Кайл Т. Хеффнер (Mitch), Али Костильо (Valerie Washington), Камбер Хейлик (Mary Ann Sanders), Гари МакДональд (Knight), Эрик Суини (Larry Osmand), Диана Элизабет Торрес (Vicki Johnson)

  • Описание:
    Главный герой талантливый писатель, который в данный период времени работает над очередной книгой. Бестселлер основан на реальных событиях и мужчина договорился с представителями местной полиции, что будет черпать информацию из их личного жизненного опыта. Как раз недавно в городе произошел очень странный случай и полиция не может разобраться, что к чему. Все обстоятельства страшного происшествия указывают на его мистическую природу, а это, как известно к делу не пришьешь. Писатель тоже оказывает посильную помощь в этом следствии и это дело не пошло ни ему, ни его семье на пользу. Он словно влез туда, куда его не просили. Теперь изо дня в день мужчину преследуют странные телефонные звонки. На другом конце провода к нему обращается некая женщина, которая пытается узнать помнит ли он ее. Личная жизнь главного героя рушится как карточный домик. Его начинают преследовать участившиеся галлюцинации. Но он все же пытается закончить свою книгу. Но со временем ситуация стала катастрофической. Герой полностью потерял грань между реальностью и вымыслом. Его преследует некая женщина, которая внешне очень похожа на его жену. Страдает от увиденного и ребенок супругов. Возможно, и мужу и жене есть, что поведать друг другу, ведь не зря их преследуют негативные страхи. Все тайное когда-нибудь становится явным, а до сегодняшнего дня супруги были не такими уже и святыми.
  • Рейтинг:



  • Качество: WEB-DLRip
  • Формат: :AVI
  • Видео кодек: XviD
  • Аудио кодек: AC3
  • Видео: 720x304 (2.35:1), 1726 kbps, 23,976 fps, 0,329 bpp
  • Аудио: 2.0 / 48 kHz / 192 kbps / 16 bit
  • Релиз от: GEKADOL

    Код:

    General
    Complete name                            : D:\Фильмы\Private.Number.2014.L2.WEB-DLRip.1400Mb.avi
    Format                                   : AVI
    Format/Info                              : Audio Video Interleave
    File size                                : 1.36 GiB
    Duration                                 : 1h 37mn
    Overall bit rate                         : 2 007 Kbps
    Writing application                      : VirtualDubMod 1.5.10.2 (build 2540/release)
    Writing library                          : VirtualDubMod build 2540/release

    Video
    ID                                       : 0
    Format                                   : MPEG-4 Visual
    Format profile                           : Advanced [email protected]
    Format settings, BVOP                    : 2
    Format settings, QPel                    : No
    Format settings, GMC                     : No warppoints
    Format settings, Matrix                  : Default (MPEG)
    Codec ID                                 : XVID
    Codec ID/Hint                            : XviD
    Duration                                 : 1h 37mn
    Bit rate                                 : 1 727 Kbps
    Width                                    : 720 pixels
    Height                                   : 304 pixels
    Display aspect ratio                     : 2.35:1
    Frame rate                               : 23.976 fps
    Color space                              : YUV
    Chroma subsampling                       : 4:2:0
    Bit depth                                : 8 bits
    Scan type                                : Progressive
    Compression mode                         : Lossy
    Bits/(Pixel*Frame)                       : 0.329
    Stream size                              : 1.17 GiB (86%)
    Writing library                          : XviD 1.2.1 (UTC 2008-12-04)

    Audio
    ID                                       : 1
    Format                                   : AC-3
    Format/Info                              : Audio Coding 3
    Mode extension                           : CM (complete main)
    Codec ID                                 : 2000
    Duration                                 : 1h 37mn
    Bit rate mode                            : Constant
    Bit rate                                 : 192 Kbps
    Channel(s)                               : 2 channels
    Channel positions                        : Front: L R
    Sampling rate                            : 48.0 KHz
    Bit depth                                : 16 bits
    Compression mode                         : Lossy
    Stream size                              : 134 MiB (10%)
    Alignment                                : Split accross interleaves




    Скриншоты:
    скриншот   скриншот   скриншот   скриншот   скриншот  
    скриншот  


    pb.wtf



  • Скачать Отдельный номер через торрент http://i1.imageban.ru/out/2015/05/21/40c63f00ba7ffbf458db2c132f41e364.jpeg Скачать, смотреть онлайн Отдельный номер бесплантно в хорошем качестве Описание: Главный герой талантливый писатель, который в данный период времени работает над очередной книгой. Бестселлер основан на реальных ... 9.9 10 8
    Торрент: Зарегистрирован [2015-05-21 08:33] · скачан: 209 раз
    Статус: T временная
    Размер: 1.36 GB
    Как cкачать? Как скачать Отдельный номер через торрент | UTorrent



    Последний раз редактировалось: GEKADOL (2015-05-21 09:11), всего редактировалось 1 раз

    28-11-2019 20:33  

    Отключить вcю реклaмy на сайте

    21-05-2015 08:44 Отдельный номер Скачать торрент  

    по описанию интригует,нравяться фильмы с таким сюжетом,посмотримpb.wtf



    21-05-2015 09:41 Отдельный номер Скачать торрент  

    чертова тема с чертовыми сбрендившими писателями уже достала. не хватает только уединенного домика где-нить в глуши... как будто других раскладов не бывает((( подсмотрели бы у японцев в очередной раз, что-ли... да еще любители попереводить наверняка матов выше крыше понавставляли. в любом случае, выложившему респект, тем более рейтинг IMDb 7.90 (правда, при 11 голосовавших - наверняк, актеров, занятых в фильме))..
    зы. качать буду. ибо "сбрендившие писаки и на безрыбье - раки")))pb.wtf



    21-05-2015 11:33 Отдельный номер Скачать торрент  

    Причём здесь ужасы..... sarcasticpb.wtf



    21-05-2015 20:08 Отдельный номер Скачать торрент  

    шлакpb.wtf



    23-05-2015 03:08 Отдельный номер Скачать торрент  

    Рейтинг 2.86 - в Фильме опять Трэхо снимался?pb.wtf



      Дорогой пользователь! Огромная просьба, поблагодарите релизера, оцените раздачу и оставьте свои комментарий, если Вы скачали Отдельный номер через торрент бесплатно!
      Комментировать посты могут только пользователи прошедшие не сложную регистрацию
      Показать сообщения:    

      Отдельный номер через торрент
      Скачать бесплатно Отдельный номер
      Отдельный номер скачать торрент
      Отдельный номер смотреть онлайн
      Cкачать фильм Отдельный номер бесплатно
      Отдельный номер скачать торрент в хорошем качестве
      Отдельный номер смотреть онлайн бесплатно в хорошем качестве


      Вы не можете начинать темы
      Вы не можете отвечать на сообщения
      Вы не можете редактировать свои сообщения
      Вы не можете удалять свои сообщения
      Вы не можете голосовать в опросах
      Вы не можете прикреплять файлы к сообщениям
      Вы можете скачивать файлы