2 сезон

iTunes

MVO

1

2 сезон

iTunes

iTunes

1 сезон

RePack

30

Новинка

ВАЖНО

ИГРА 18+

pack

RePack

MK11
pack

Легкие деньги

RePack

jed

RePack

fifa19

RePack

RDR2

RePack

NEED FOR SPEED™ PAYBACK

4 сезон

9 сезон

Бесстыжие 9 сезон

Все сериалы

все сериалы на PB.wtf

RePack

FAR CRY 5

Anonymous, доброе утро, мы не успеваем собрать деньги на оплату серверов за декабрь и январь, помогите нам пожалуйста в это трудное время. В качестве благодарности мы отключим Вам всю рекламу на сайте (укажите свой ник в строку Ваше имя)!

×
  
Magnet ссылка

Гравитация / Gravity (Альфонсо Куарон) [2013 г., фантастика, триллер, драма, BDRip 1080p , Дубляж [iTunes] OverUnder / Вертикальная анаморфная стереопара [iTunes] pb.wtf

Гравитация через торрент pb.wtf

Размер: 11.76 GB | Добавлен: 5 лет 7 мес. назад | Торрент скачан:146 раз
Скачать  

09-02-2014 16:30 Гравитация Скачать торрент  

Гравитация / Gravity Год выпуска: 2013
Страна: США, Великобритания
Жанр: фантастика, триллер, драма,
Продолжительность: 01:30:58
Перевод: Дубляж [iTunes]
Субтитры: Внешние (UTF-8):
#1 - Русские Форсированные (включены по умолчанию)
#2 - Русские Полные
#3 - Украинские Форсированные
#4 - Украинские Полные
#5 - English SDH Вшитые (softsub):
#1 - Русские Форсированные (включены по умолчанию)
#3 - Украинские Форсированные

Режиссер: Альфонсо Куарон




В ролях: Сандра Буллок, Джордж Клуни, Эрик Мишелс, Башер Саваж,

Описание: Доктор Райан Стоун, блестящий специалист в области медицинского инжиниринга, отправляется в свою первую космическую миссию под командованием ветерана астронавтики Мэтта Ковальски, для которого этот полет — последний перед отставкой. Но во время, казалось бы, рутинной работы за бортом случается катастрофа.
Шаттл уничтожен, а Стоун и Ковальски остаются совершенно одни; они находятся в связке друг с другом, и все, что они могут, — это двигаться по орбите в абсолютно черном пространстве без всякой связи с Землей и какой-либо надежды на спасение.

Качество: BDRip 1080p
Half OverUnder / Вертикальная анаморфная стереопара
Формат: MKV
Видео кодек: H.264
Аудио кодек: AC3
Видео: AVC / 23,976 fps / 1920х1080p / 17.1 Mbps
Аудио#1: Русский / AC3 / 48 KHz / 5.1 ch / 384 Kbps (Дубляж - iTunes)
Аудио#2: Английский / AC3 / 48 KHz / 5.1 ch / 640 Kbps (Original - BD 3D)
Релиз от: by Ash61







General
Unique ID : 223658454472489928552360718413009122930 (0xA8430D2DB021ABDAB64CC66A03F9F672)
Complete name : E:Gravity(2013)3D-halfOU(Ash61)Audio-iTunesGravity(2013)3D-halfOU(Ash61)Audio-iTunes.mkv
Format : Matroska
Format version : Version 2
File size : 11.8 GiB
Duration : 1h 30mn
Overall bit rate : 18.5 Mbps
Movie name : Гравитация / Gravity (2013) 3D
Encoded date : UTC 2014-02-09 11:19:06
Writing application : mkvmerge v5.8.0 ('No Sleep / Pillow') built on Sep 2 2012 15:37:04
Writing library : libebml v1.2.3 + libmatroska v1.3.0

Video
ID : 1
Format : AVC
Format/Info : Advanced Video Codec
Format profile : High@L4.1
Format settings, CABAC : Yes
Format settings, ReFrames : 4 frames
Codec ID : V_MPEG4/ISO/AVC
Duration : 1h 30mn
Bit rate : 17.1 Mbps
Width : 1 920 pixels
Height : 1 080 pixels
Display aspect ratio : 16:9
Frame rate mode : Constant
Frame rate : 23.976 fps
Color space : YUV
Chroma subsampling : 4:2:0
Bit depth : 8 bits
Scan type : Progressive
Bits/(Pixel*Frame) : 0.344
Stream size : 10.9 GiB (92%)
Title : BDRip by Ash61
Writing library : x264 core 129 r2245 bc13772
Encoding settings : cabac=1 / ref=4 / deblock=1:-3:-3 / analyse=0x3:0x113 / me=umh / subme=10 / psy=1 / psy_rd=1.00:0.15 / mixed_ref=1 / me_range=32 / chroma_me=1 / trellis=2 / 8x8dct=1 / cqm=0 / deadzone=21,11 / fast_pskip=1 / chroma_qp_offset=-3 / threads=12 / lookahead_threads=2 / sliced_threads=0 / nr=0 / decimate=1 / interlaced=0 / bluray_compat=0 / constrained_intra=0 / bframes=10 / b_pyramid=2 / b_adapt=2 / b_bias=0 / direct=3 / weightb=1 / open_gop=0 / weightp=2 / keyint=250 / keyint_min=23 / scenecut=40 / intra_refresh=0 / rc_lookahead=60 / rc=crf / mbtree=1 / crf=17.0 / qcomp=0.70 / qpmin=0 / qpmax=69 / qpstep=4 / vbv_maxrate=40000 / vbv_bufsize=30000 / crf_max=0.0 / nal_hrd=none / frame-packing=4 / ip_ratio=1.40 / aq=1:0.70
Language : English
Default : Yes
Forced : No

Audio #1
ID : 2
Format : AC-3
Format/Info : Audio Coding 3
Mode extension : CM (complete main)
Format settings, Endianness : Big
Codec ID : A_AC3
Duration : 1h 30mn
Bit rate mode : Constant
Bit rate : 384 Kbps
Channel(s) : 6 channels
Channel positions : Front: L C R, Side: L R, LFE
Sampling rate : 48.0 KHz
Bit depth : 16 bits
Compression mode : Lossy
Stream size : 250 MiB (2%)
Title : Дубляж - iTunes
Language : Russian
Default : Yes
Forced : No

Audio #2
ID : 3
Format : AC-3
Format/Info : Audio Coding 3
Mode extension : CM (complete main)
Format settings, Endianness : Big
Codec ID : A_AC3
Duration : 1h 30mn
Bit rate mode : Constant
Bit rate : 640 Kbps
Channel(s) : 6 channels
Channel positions : Front: L C R, Side: L R, LFE
Sampling rate : 48.0 KHz
Bit depth : 16 bits
Compression mode : Lossy
Stream size : 416 MiB (3%)
Title : Original - BD 3D
Language : English
Default : No
Forced : No

Text #1
ID : 4
Format : UTF-8
Codec ID : S_TEXT/UTF8
Codec ID/Info : UTF-8 Plain Text
Title : Форсированные
Language : Russian
Default : Yes
Forced : No

Text #2
ID : 5
Format : UTF-8
Codec ID : S_TEXT/UTF8
Codec ID/Info : UTF-8 Plain Text
Title : Форсированные
Language : Ukrainian
Default : No
Forced : No

Menu
00:00:00.000 : :1
00:13:08.830 : :2
00:21:33.542 : :3
00:29:12.668 : :4
00:39:59.856 : :5
00:48:49.051 : :6
00:57:00.667 : :7
01:08:08.418 : :8
01:15:27.148 : :9
01:23:50.567 : :10

pb.wtf



Скачать Гравитация через торрент http://i58.fastpic.ru/big/2013/1206/f5/21dd07960b4b028b1b54afe2e7c2ccf5.png Скачать фильм Гравитация через торрент бесплантно в хорошем качестве Описание: Доктор Райан Стоун, блестящий специалист в области медицинского инжиниринга, отправляется в свою первую космическую миссию под ... 9.9 10 33
Торрент: Зарегистрирован [2015-05-21 13:34] · скачан: 146 раз
Статус: √ проверено
Размер: 11.76 GB
Как cкачать? Как скачать Гравитация через торрент | UTorrent

% Раздел Тема Автор DL S | L
3D Мультфильмы [ 3.69 GB ] Секреты гравитации: По стопам Альберта Эйнштейна в 3Д / The Secrets of Gravity: In the Footsteps of Albert Einstein 3D [2016 мультфильм познавательный BDRip 1080p] OverUnder / Вертикальная стереопа serega768 Скачать
1 | 0
3D Фильмы [ 18.61 GB ] Гравитация в 3Д / Gravity 3D [2013 BDrip 1080p] OverUnder / Вертикальная стереопара serega768 Скачать
1 | 0
Документальные фильмы и телепередачи [ 699 MB ] Проект Гринглоу. В поисках власти над гравитацией / Project Greenglow. The Quest for Gravity Control [2016 Документальный SATRip] Armstrong Скачать
1 | 0
Фильмы [HD 720p, 1080p] (Хороший звук DUB, MVO) [ 3.7 GB ] Гравитация / Gravity [2013 BDRip 1080p HEVC ] Мичман37 Скачать
1 | 0
BBC [ 2.95 GB ] Я и гравитация. Сила формирующая нашу жизнь / Gravity and Me. The Force That Shapes Our Lives [2017 Документальный научно-познавательный HDTVRip 720p ] Armstrong Скачать
1 | 0
Фильмы (HD 720p, 1080p) (48-60 fps) [ 14.07 GB ] Гравитация / Gravity [2013 BDRip 1080p 60fps Dub AVO VO Original] от R.G. HD-Films Tiberiumsun69 Скачать
8 | 1
Фильмы (HD 720p, 1080p) (48-60 fps) [ 6.4 GB ] Гравитация / Gravity [2013 BDRip 720p 60fps Dub AVO VO Original] от R.G. HD-Films Tiberiumsun69 Скачать
5 | 0


Последний раз редактировалось: gnev78 (2014-02-09 17:04), всего редактировалось 1 раз

28-11-2019 20:33  

Отключить всю рекламу на сайте

09-02-2014 17:56 Гравитация Скачать торрент  

выложил и не раздаешь!pb.wtf



09-02-2014 18:00 Гравитация Скачать торрент  

bulaev
все раздаётсяpb.wtf



11-02-2014 03:50 Гравитация Скачать торрент  

А почему в другой раздаче Горизонтальная анаморфная стереопара?
И у обоих написано айтюнс.... Кто-то сам 3д слепил или что?pb.wtf



11-02-2014 09:56 Гравитация Скачать торрент  

mudilko
разный метод кодировки видео, а айтюнс - вообще к звуку относится.pb.wtf



    Дорогой пользователь! Огромная просьба, поблагодарите релизера, оцените раздачу и оставьте свои комментарий, если Вы скачали Гравитация через торрент бесплатно! Внесите свою лепту в развитие PiratBit!
    Комментировать посты могут только пользователи прошедшие не сложную регистрацию
    Показать сообщения:    

    Гравитация через торрент
    Скачать бесплатно Гравитация
    Гравитация скачать торрент
    Гравитация смотреть онлайн
    Cкачать фильм Гравитация бесплатно
    Гравитация скачать торрент в хорошем качестве
    Гравитация смотреть онлайн бесплатно в хорошем качестве


    Вы не можете начинать темы
    Вы не можете отвечать на сообщения
    Вы не можете редактировать свои сообщения
    Вы не можете удалять свои сообщения
    Вы не можете голосовать в опросах
    Вы не можете прикреплять файлы к сообщениям
    Вы можете скачивать файлы