2 сезон

iTunes

1 сезон

1

iTunes

iTunes

iTunes

1 сезон

RePack

30

ИГРА 18+

pack

ВАЖНО

!!Акция!!

Alien_RageХит недели

RePack

MK11
pack

Забери бонус

RePack

jed

!!Акция!!

Alien_Rage

RePack

fifa19

RePack

Assassins Creed: Odyssey

RePack

NEED FOR SPEED™ PAYBACK

4 сезон

9 сезон

Бесстыжие 9 сезон

Все сериалы

все сериалы на PB.wtf

RePack

FAR CRY 5
  

С Новым годом! / La bonne année (Клод Лелуш) [1973, комедия, криминал, BDRip 720p] MVO pb.wtf

С Новым годом! через торрент pb.wtf

Размер: 3.73 GB | Добавлен: 5 лет 5 мес. назад | Торрент скачан:16 раз
Скачать  

21-05-2015 14:41 С Новым годом! Скачать торрент  


Название: С Новым годом!
Оригинальное название: La bonne année
Год выпуска: 1973
Страна: Франция, Италия
Жанр: комедия, криминал
Продолжительность: 01:54:35
Перевод: профессиональный многоголосый

Режиссёр: Клод Лелуш

В ролях: Лино Вентура, Франсуаза Фабиан, Шарль Жерар, Андре Фалькон, Мирей Матьё, Лило, Клод Манн, Фредерик де Паскуале, Жерар Сир, Сильвано Транквилли

Описание: Дуэт гангстеров-профессионалов, Симон и его сообщник Шарль, планируют провернуть крупное ограбление ювелирного магазина. Но неожиданно Симон влюбляется в очаровательную владелицу антикварного магазина Франсуазу, чья лавка находится как раз по соседству с предполагаемым местом ограбления. Теперь главное, чтобы любовный роман не помешал осуществлению операции...



Качество: BDRip 720p Сравнение с исходником
Формат: MKV
Видео кодек: H.264
Аудио кодек: AC3
Видео: MPEG-4 AVC, 4188 Кбит/с, 960x720, 24 кадра/с
Аудио 1: русский, AC3, 192 kbps, 2 ch, 48 kHz [профессиональный многоголосый]
Аудио 2: французский, AC3, 192 kbps, 2 ch, 48 kHz [оригинал]
Субтитры 1: русские
Субтитры 2: английские
Британская академия, 1975 год
Номинации (1):
Премия имени Энтони Эскуита за достижения в создании музыки к фильму

Сан-Себастьян, 1973 год
Победитель (2):
Приз Сан-Себастьяна за лучшую мужскую роль (Лино Вентура)
Приз Сан-Себастьяна за лучшую женскую роль (Франсуаза Фабиан)
Общее
Уникальный идентификатор : 211394254740672892814322358893387903809 (0x9F090D7273B493F48E32923B580AF341)
Полное имя : D:VideoС Новым годом!.1973.BDRip.720p.mkv
Формат : Matroska
Версия формата : Version 4 / Version 2
Размер файла : 3,73 Гбайт
Продолжительность : 1 ч. 54 м.
Общий поток : 4665 Кбит/сек
Название фильма : BDRip -- STarankov
Дата кодирования : UTC 2015-05-20 04:11:05
Программа кодирования : mkvmerge v7.9.0 ('Birds') 64bit
Библиотека кодирования : libebml v1.3.1 + libmatroska v1.4.2
_STATISTICS_WRITING_APP : mkvmerge v7.9.0 ('Birds') 64bit
_STATISTICS_WRITING_DATE_UTC : 2015-05-20 04:11:05
_STATISTICS_TAGS : BPS DURATION NUMBER_OF_FRAMES NUMBER_OF_BYTES
DURATION : 01:54:04.915000000
NUMBER_OF_FRAMES : 1168
NUMBER_OF_BYTES : 43897

Видео
Идентификатор : 1
Формат : AVC
Формат/Информация : Advanced Video Codec
Профиль формата : High@L4.1
Параметр CABAC формата : Да
Параметр ReFrames формата : 9 кадров
Идентификатор кодека : V_MPEG4/ISO/AVC
Продолжительность : 1 ч. 54 м.
Битрейт : 4188 Кбит/сек
Ширина : 960 пикселей
Высота : 720 пикселей
Соотношение сторон : 4:3
Режим частоты кадров : Постоянный
Частота кадров : 24,000 кадра/сек
Цветовое пространство : YUV
Субдискретизация насыщенности : 4:2:0
Битовая глубина : 8 бит
Тип развёртки : Прогрессивная
Бит/(Пиксели*Кадры) : 0.252
Размер потока : 3,35 Гбайт (90%)
Библиотека кодирования : x264 core 146 r2538 121396c
Настройки программы : cabac=1 / ref=9 / deblock=1:-1:-1 / analyse=0x3:0x113 / me=umh / subme=10 / psy=1 / psy_rd=1.00:0.15 / mixed_ref=1 / me_range=32 / chroma_me=1 / trellis=2 / 8x8dct=1 / cqm=0 / deadzone=21,11 / fast_pskip=1 / chroma_qp_offset=-3 / threads=6 / lookahead_threads=1 / sliced_threads=0 / nr=0 / decimate=1 / interlaced=0 / bluray_compat=0 / constrained_intra=0 / bframes=9 / b_pyramid=2 / b_adapt=2 / b_bias=0 / direct=1 / weightb=1 / open_gop=0 / weightp=2 / keyint=230 / keyint_min=23 / scenecut=40 / intra_refresh=0 / rc_lookahead=40 / rc=crf / mbtree=0 / crf=20.0 / qcomp=0.60 / qpmin=0 / qpmax=69 / qpstep=4 / vbv_maxrate=40000 / vbv_bufsize=50000 / crf_max=0.0 / nal_hrd=none / filler=0 / ip_ratio=1.40 / pb_ratio=1.30 / aq=1:1.00
Язык : French
Default : Да
Forced : Нет
DURATION : 01:54:35.209000000
NUMBER_OF_FRAMES : 165005
NUMBER_OF_BYTES : 3677326613
_STATISTICS_WRITING_APP : mkvmerge v7.9.0 ('Birds') 64bit
_STATISTICS_WRITING_DATE_UTC : 2015-05-20 04:11:05
_STATISTICS_TAGS : BPS DURATION NUMBER_OF_FRAMES NUMBER_OF_BYTES

Аудио #1
Идентификатор : 2
Формат : AC-3
Формат/Информация : Audio Coding 3
Расширение режима : CM (complete main)
Параметр Endianness формата : Big
Идентификатор кодека : A_AC3
Продолжительность : 1 ч. 54 м.
Вид битрейта : Постоянный
Битрейт : 192 Кбит/сек
Каналы : 2 канала
Расположение каналов : Front: L R
Частота : 48,0 КГц
Битовая глубина : 16 бит
Метод сжатия : С потерями
Размер потока : 157 Мбайт (4%)
Заголовок : MVO
Язык : Russian
Default : Да
Forced : Нет

Аудио #2
Идентификатор : 3
Формат : AC-3
Формат/Информация : Audio Coding 3
Расширение режима : CM (complete main)
Параметр Endianness формата : Big
Идентификатор кодека : A_AC3
Продолжительность : 1 ч. 54 м.
Вид битрейта : Постоянный
Битрейт : 192 Кбит/сек
Каналы : 2 канала
Расположение каналов : Front: L R
Частота : 48,0 КГц
Битовая глубина : 16 бит
Метод сжатия : С потерями
Размер потока : 157 Мбайт (4%)
Заголовок : Original
Язык : French
Default : Нет
Forced : Нет

Текст #1
Идентификатор : 4
Формат : UTF-8
Идентификатор кодека : S_TEXT/UTF8
Идентификатор кодека/Информация : UTF-8 Plain Text
Заголовок : русские
Язык : Russian
Default : Нет
Forced : Нет

Текст #2
Идентификатор : 5
Формат : UTF-8
Идентификатор кодека : S_TEXT/UTF8
Идентификатор кодека/Информация : UTF-8 Plain Text
Заголовок : английские
Default : Нет
Forced : Нет
pb.wtf



Скачать С Новым годом! через торрент http://i69.fastpic.ru/big/2015/0521/6b/39103eaab52e35438190d42fd9713a6b.jpg Скачать фильм С Новым годом! через торрент бесплантно в хорошем качестве Описание: Дуэт гангстеров-профессионалов, Симон и его сообщник Шарль, планируют провернуть крупное ограбление ювелирного магазина. Но ... 10 10 6
Info! Золотая раздача, скачанное не засчитывается.
Торрент: Зарегистрирован [2015-05-21 14:41] · скачан: 16 раз
Статус: √ проверено
Размер: 3.73 GB
Как cкачать? Как скачать С Новым годом! через торрент | qTorrent

% Раздел Тема Автор DL S | L
Фильмы [HD 720p, 1080p] (Хороший звук DUB, MVO) [ 10.57 GB ] С Новым годом! / La bonne année [1973 BDRip 1080p] MVO msltel Скачать
1 | 0
Фильмы до 2000 г. [ 2.2 GB ] С Новым годом! / La bonne année [1973 BDRip AVC] MVO msltel Скачать
1 | 0

28-11-2019 20:33  

Отключить всю рекламу на сайте

    Дорогой пользователь! Огромная просьба, поблагодарите релизера, оцените раздачу и оставьте свои комментарий, если Вы скачали С Новым годом! через торрент бесплатно! Внесите свою лепту в развитие PiratBit!
    Комментировать посты могут только пользователи прошедшие не сложную регистрацию
    Показать сообщения:    

    С Новым годом! через торрент
    Скачать бесплатно С Новым годом!
    С Новым годом! скачать торрент
    С Новым годом! смотреть онлайн
    Cкачать фильм С Новым годом! бесплатно
    С Новым годом! скачать торрент в хорошем качестве
    С Новым годом! смотреть онлайн бесплатно в хорошем качестве


    Вы не можете начинать темы
    Вы не можете отвечать на сообщения
    Вы не можете редактировать свои сообщения
    Вы не можете удалять свои сообщения
    Вы не можете голосовать в опросах
    Вы не можете прикреплять файлы к сообщениям
    Вы можете скачивать файлы