Ссылка на приватное зеркало всего за 1$. Внимание количество ограничено!!!

iTunes

iTunes

iTunes

1

iTunes

iTunes

iTunes

iTunes

iTunes

30
pack

$ от Little Big

ВАЖНО

!!Акция!!

Alien_RageХит недели

RePack

Resident Evil 21

ИГРА 18+

pack

RePack

jed

!!Акция!!

Alien_Rage

RePack

fifa19

RePack

Assassins Creed: Odyssey

RePack

NEED FOR SPEED™ PAYBACK

4 сезон

9 сезон

Бесстыжие 9 сезон

Все сериалы

все сериалы на PB.wtf

RePack

FAR CRY 5
  

Неупокоенная / Dark Summer (Пол Солет) [2014 г., триллер, WEB-DL 720p , Дубляж, Чистый звук] pb.wtf

Неупокоенная через торрент pb.wtf

Размер: 2.72 GB | Добавлен: 5 лет 1 мес. назад | Торрент скачан:154 раза
Скачать  

21-05-2015 18:46 Неупокоенная Скачать торрент  

Неупокоенная / Dark Summer

Год выпуска: 2014

Страна: США

Жанр: триллер

Продолжительность: 01:21:37

Перевод: Дубляж, Чистый звук

Субтитры: Английские




Режиссер: Пол Солет

Продюссер: Росс М. Динерштейн, Цаба Берецки, Джулиана Кардарелли

Сценарий: Майк Ле




Премьера в мире: 9 января 2015

IMDB 4.10 (769)





В ролях: Кейр Гилкрист, Стелла Маив, Маэстро Харрелл, Грэйс Фиппс, Петер Стормаре

Описание: История Дениэла Уильямса, 17-летнего подростка, которого суд приговорил к домашнему аресту на все лето. Пока его мать отлучилась по делам, в доме происходит происшествие, которое влечет за собой цепь страшных и непредсказуемых событий. Одноклассница Дениэла звонит ему по скайпу и обвиняет его в том, что он довел ее до самоубийства. Обвиняет и убивает себя прямо на его глазах. Перед смертью она говорит, что придет к нему после смерти и заберет его с собой...




Качество: WEB-DL 720p

Формат: MKV

Видео: AVC;1280x720 (16:9);3908 Kbps;23,976 fps;0,177 bpp

Аудио №1: русский;AC3;384 Kbps;CBR;2 ch;16 bit

Аудио №2: английский;AC3;384 Kbps;CBR;6 ch;16 bit






скриншот   скриншот   скриншот  
Общее
Уникальный идентификатор : 221862645607252860262195674076512494124 (0xA6E930F72CEAB7339F1C0322341FA22C)
Полное имя : E:\Films\Heup0K0eHHaYa.2015..D.WEB-DL.720p.mkv
Формат : Matroska
Версия формата : Version 4 / Version 2
Размер файла : 2,72 Гбайт
Продолжительность : 1 ч. 21 м.
Общий поток : 4772 Кбит/сек
Дата кодирования : UTC 2015-05-21 06:27:47
Программа кодирования : mkvmerge v6.5.0 ('Isn't she lovely') built on Oct 20 2013 12:50:05
Библиотека кодирования : libebml v1.3.0 + libmatroska v1.4.1

Видео
Идентификатор : 1
Формат : AVC
Формат/Информация : Advanced Video Codec
Профиль формата : High@L3.1
Параметр CABAC формата : Нет
Параметр ReFrames формата : 2 кадра
Идентификатор кодека : V_MPEG4/ISO/AVC
Продолжительность : 1 ч. 21 м.
Битрейт : 3909 Кбит/сек
Ширина : 1280 пикселей
Высота : 720 пикселей
Соотношение сторон : 16:9
Режим частоты кадров : Постоянный
Частота кадров : 23,976 кадра/сек
Цветовое пространство : YUV
Субдискретизация насыщенности : 4:2:0
Битовая глубина : 8 бит
Тип развёртки : Прогрессивная
Бит/(Пиксели*Кадры) : 0.177
Размер потока : 2,23 Гбайт (82%)
Язык : English
Default : Да
Forced : Нет
colour_range : Limited
Основные цвета : BT.709
Характеристики трансфера : BT.709
Коэффициенты матрицы : BT.709

Аудио #1
Идентификатор : 2
Формат : AC-3
Формат/Информация : Audio Coding 3
Расширение режима : CM (complete main)
Параметр Endianness формата : Big
Идентификатор кодека : A_AC3
Продолжительность : 1 ч. 21 м.
Вид битрейта : Постоянный
Битрейт : 384 Кбит/сек
Каналы : 2 канала
Расположение каналов : Front: L R
Частота : 48,0 КГц
Битовая глубина : 16 бит
Метод сжатия : С потерями
Размер потока : 224 Мбайт (8%)
Язык : Russian
Default : Да
Forced : Нет

Аудио #2
Идентификатор : 3
Формат : AC-3
Формат/Информация : Audio Coding 3
Расширение режима : CM (complete main)
Параметр Endianness формата : Big
Идентификатор кодека : A_AC3
Продолжительность : 1 ч. 21 м.
Вид битрейта : Постоянный
Битрейт : 384 Кбит/сек
Каналы : 6 каналов
Расположение каналов : Front: L C R, Side: L R, LFE
Частота : 48,0 КГц
Битовая глубина : 16 бит
Метод сжатия : С потерями
Размер потока : 224 Мбайт (8%)
Язык : English
Default : Нет
Forced : Нет

Текст
Идентификатор : 4
Формат : UTF-8
Идентификатор кодека : S_TEXT/UTF8
Идентификатор кодека/Информация : UTF-8 Plain Text
Язык : English
Default : Нет
Forced : Нет

Меню
00:00:00.000 : en:1
00:10:45.000 : en:2
00:21:42.000 : en:3
00:29:55.000 : en:4
00:39:57.000 : en:5
00:49:08.000 : en:6
01:01:02.000 : en:7
01:10:40.000 : en:8
01:16:11.000 : en:9
pb.wtf



Скачать Неупокоенная через торрент http://pic.kartinco.top/images/11/y8wpi.jpg Скачать фильм Неупокоенная через торрент бесплантно в хорошем качестве Описание: История Дениэла Уильямса, 17-летнего подростка, которого суд приговорил к домашнему аресту на все лето. Пока его мать отлучилась ... 8 10 7
Торрент: Зарегистрирован [2015-05-21 18:46] · скачан: 154 раз
Статус: T временная
Размер: 2.72 GB
Как cкачать? Как скачать Неупокоенная через торрент | qTorrent

% Раздел Тема Автор DL S | L
T Фильмы 2015 [DVDrip, WEB-DLRip, HDrip] [ 1.51 GB ] Неупокоенная / Dark Summer [2014 WEB-DLRip-AVC ] / Чистый звук] Seff2 Скачать
1 | 0
T Фильмы 2014 [DVDrip, WEB-DLRip, HDrip] [ 1.45 GB ] Неупокоенная / Dark Summer [2014 WEB-DLRip - Чистый звук] Ворон Скачать
1 | 0

28-11-2019 20:33  

Отключить всю рекламу на сайте

21-05-2015 18:48 Неупокоенная Скачать торрент  

Форма заполнена с помощью кинопоиска, по этому хз почему год выпуска 2014, - а премьера 2015 =)pb.wtf



21-05-2015 19:07 Неупокоенная Скачать торрент  

Опять гениальный перевод названия фильма. Чем им "Тёмное лето" не угодило то?pb.wtf



21-05-2015 19:15 Неупокоенная Скачать торрент  

Steamboy писал(а):

Опять гениальный перевод названия фильма. Чем им "Тёмное лето" не угодило то?

Дятлы, что поделаешь pb.wtf



    Дорогой пользователь! Огромная просьба, поблагодарите релизера, оцените раздачу и оставьте свои комментарий, если Вы скачали Неупокоенная через торрент бесплатно! Внесите свою лепту в развитие PiratBit!
    Комментировать посты могут только пользователи прошедшие не сложную регистрацию
    Показать сообщения:    

    Неупокоенная через торрент
    Скачать бесплатно Неупокоенная
    Неупокоенная скачать торрент
    Неупокоенная смотреть онлайн
    Cкачать фильм Неупокоенная бесплатно
    Неупокоенная скачать торрент в хорошем качестве
    Неупокоенная смотреть онлайн бесплатно в хорошем качестве


    Вы не можете начинать темы
    Вы не можете отвечать на сообщения
    Вы не можете редактировать свои сообщения
    Вы не можете удалять свои сообщения
    Вы не можете голосовать в опросах
    Вы не можете прикреплять файлы к сообщениям
    Вы можете скачивать файлы