Ссылка на приватное зеркало всего за 1$. Внимание количество ограничено!!!

iTunes

iTunes

iTunes

1

iTunes

iTunes

iTunes

iTunes

iTunes

30
pack

$ от Little Big

ВАЖНО

!!Акция!!

Alien_RageХит недели

RePack

Resident Evil 21

ИГРА 18+

pack

RePack

jed

!!Акция!!

Alien_Rage

RePack

fifa19

RePack

Assassins Creed: Odyssey

RePack

NEED FOR SPEED™ PAYBACK

4 сезон

9 сезон

Бесстыжие 9 сезон

Все сериалы

все сериалы на PB.wtf

RePack

FAR CRY 5
  

Особо опасна / Barely Lethal (Кайл Ньюман / Kyle Newman) [2015, США, боевик, комедия, приключения, WEB-DL 720p, Дубляж] iTunes pb.wtf

Особо опасна через торрент pb.wtf

Размер: 2.99 GB | Добавлен: 5 лет 1 мес. назад | Торрент скачан:1401 раз
Скачать  

22-05-2015 01:46 Особо опасна Скачать торрент  

Особо опасна / Barely Lethal
«Обычная жизнь спецагента»


  • Год выпуска: 2015
  • Страна: США
  • Жанр: боевик, комедия, приключения
  • Продолжительность: 01:38:14
  • Перевод: Дубляж - [Лицензия / iTunes]

  • Режиссер: Кайл Ньюман / Kyle Newman
  • В ролях:

    Хейли Стайнфелд (Megan Walsh), Сэмюэл Л. Джексон (Hardman), Джессика Альба (Victoria Knox), Софи Тернер (Heather), Джейми Кинг (Analyst Knight), Дав Камерон (Liz Larson), Дэн Фоглер (Mr. Drumm), Рэйчел Харрис (Mrs. Larson), Томас Манн (Roger Marcus), Александра Кросни (Cindy), Гэбриел Бассо (Gooch), Тоби Себастьян (Cash Fenton)

  • Описание:
    Меган - спецагент международного класса. В свои шестнадцать она владеет карате, стреляет без промаха и способна обезвредить взрослого вооруженного мужчину. Но Меган мечтает о жизни простого тинейджера - с тусовками и дискотеками. И судьба предоставляет ей такую возможность, но очень скоро супердевушка понимает, что в школе бывает опаснее, чем на на самой сложной спецоперации.
  • Рейтинг:



  • Качество: WEB-DL 720p
  • Формат: :MKV
  • Видео кодек: AVC
  • Аудио кодек: AC3
  • Видео: 1280x690 (1.855), 3883 kbps, 24 fps, 0,183 bpp
  • Аудио: русский / 5.1 / 48 kHz / 384 kbps / 16 bit
  • Релиз от: GEKADOL

    Код:

    General
    Unique ID                                : 251750732574369752435388150260214808767 (0xBD656D6C9E64A12E8D32C5FE918040BF)
    Complete name                            : F:\0Cob0.0paCHa.2015.D.WEB-DL.720p.mkv
    Format                                   : Matroska
    Format version                           : Version 4 / Version 2
    File size                                : 2.99 GiB
    Duration                                 : 1h 38mn
    Overall bit rate                         : 4 354 Kbps
    Encoded date                             : UTC 2015-05-21 18:08:30
    Writing application                      : mkvmerge v6.9.1 ('Blue Panther') 64bit built on Apr 18 2014 18:23:38
    Writing library                          : libebml v1.3.0 + libmatroska v1.4.1

    Video
    ID                                       : 1
    Format                                   : AVC
    Format/Info                              : Advanced Video Codec
    Format profile                           : High@L3.1
    Format settings, CABAC                   : No
    Format settings, ReFrames                : 2 frames
    Codec ID                                 : V_MPEG4/ISO/AVC
    Duration                                 : 1h 38mn
    Bit rate                                 : 3 883 Kbps
    Width                                    : 1 280 pixels
    Height                                   : 690 pixels
    Display aspect ratio                     : 1.855
    Frame rate                               : 24.000 fps
    Color space                              : YUV
    Chroma subsampling                       : 4:2:0
    Bit depth                                : 8 bits
    Scan type                                : Progressive
    Bits/(Pixel*Frame)                       : 0.183
    Stream size                              : 2.66 GiB (89%)
    Language                                 : English
    Default                                  : Yes
    Forced                                   : No
    Color primaries                          : BT.709-5, BT.1361, IEC 61966-2-4, SMPTE RP177
    Transfer characteristics                 : BT.709-5, BT.1361
    Matrix coefficients                      : BT.709-5, BT.1361, IEC 61966-2-4 709, SMPTE RP177

    Audio
    ID                                       : 2
    Format                                   : AC-3
    Format/Info                              : Audio Coding 3
    Mode extension                           : CM (complete main)
    Codec ID                                 : A_AC3
    Duration                                 : 1h 38mn
    Bit rate mode                            : Constant
    Bit rate                                 : 384 Kbps
    Channel(s)                               : 6 channels
    Channel positions                        : Front: L C R, Side: L R, LFE
    Sampling rate                            : 48.0 KHz
    Bit depth                                : 16 bits
    Compression mode                         : Lossy
    Stream size                              : 270 MiB (9%)
    Language                                 : Russian
    Default                                  : Yes
    Forced                                   : No

    Menu
    00:00:00.000                             : en:Глава 1
    00:05:45.000                             : en:Глава 2
    00:12:35.000                             : en:Глава 3
    00:17:04.000                             : en:Глава 4
    00:22:10.000                             : en:Глава 5
    00:25:36.000                             : en:Глава 6
    00:33:21.000                             : en:Глава 7
    00:38:29.000                             : en:Глава 8
    00:43:41.000                             : en:Глава 9
    00:49:00.000                             : en:Глава 10
    00:54:32.000                             : en:Глава 11
    01:00:11.000                             : en:Глава 12
    01:03:19.000                             : en:Глава 13
    01:07:10.000                             : en:Глава 14
    01:12:31.000                             : en:Глава 15
    01:17:17.000                             : en:Глава 16
    01:22:13.000                             : en:Глава 17
    01:29:46.000                             : en:Глава 18




    Скриншоты:



    pb.wtf



  • Скачать Особо опасна через торрент http://i4.imageban.ru/out/2015/05/22/f4ee3710737c821fb56ab432ec59b318.jpg Скачать фильм Особо опасна через торрент бесплантно в хорошем качестве Описание: Меган - спецагент международного класса. В свои шестнадцать она владеет карате, стреляет без промаха и способна обезвредить ... 9 10 23
    Info! Золотая раздача, скачанное не засчитывается.
    Торрент: Зарегистрирован [2015-05-22 01:46] · скачан: 1 401 раз
    Статус: √ проверено
    Размер: 2.99 GB
    Как cкачать? Как скачать Особо опасна через торрент | qTorrent

    % Раздел Тема Автор DL S | L
    Фильмы 2014 [DVDrip, WEB-DLRip, HDrip] [ 2.14 GB ] Особо опасна / Barely Lethal [2014 BDRip-AVC] Dub potroks Скачать
    1 | 0
    Фильмы 2015 [DVDrip, WEB-DLRip, HDrip] [ 1.41 GB ] Особо опасна / Barely Lethal [2015 BDRip ] Twi7ter Скачать
    2 | 0
    Фильмы (Blu-ray, BD-Remux, HDDVD) [ 27.61 GB ] Особо опасна / Barely Lethal [2015 Blu-ray ] Бумер Скачать
    1 | 0
    Фильмы (WEB-DL 720p, 1080p) [ 3.78 GB ] Особо опасна / Barely Lethal [2015 WEB-DL 1080p ] GEKADOL Скачать
    1 | 0
    Фильмы 2015 [DVDrip, WEB-DLRip, HDrip] [ 702 MB ] Особо опасна / Barely Lethal [2015 WEB-DLRip ""] coc900 Скачать
    1 | 0
    Фильмы 2015 [DVDrip, WEB-DLRip, HDrip] [ 1.46 GB ] Особо опасна / Barely Lethal [2015 WEB-DLRip - / ] Ворон Скачать
    1 | 0

    28-11-2019 20:33  

    Отключить всю рекламу на сайте

    24-05-2015 15:46 Особо опасна Скачать торрент  

    Сюда по актрисе, 16 ей было,довольно давно)))pb.wtf



    24-05-2015 17:26 Особо опасна Скачать торрент  

    Фильм не стоит затраченного на него времениpb.wtf



    25-05-2015 16:09 Особо опасна Скачать торрент  

    возможно это гавн...для недоразвитых взрослых ,или для детей не старше 10 лет,и то не знаю будет ли и им интересно...полная бредятина!pb.wtf



    02-06-2015 20:26 Особо опасна Скачать торрент  

    До 16ти лет воспитывали зверенком среди зверят в клетке, а вырос пуфыстый цветочек) Бред полный. Но лайк за Джесику Альба sarcasticpb.wtf



    05-06-2015 11:41 Особо опасна Скачать торрент  

    Гляну спсpb.wtf



      Дорогой пользователь! Огромная просьба, поблагодарите релизера, оцените раздачу и оставьте свои комментарий, если Вы скачали Особо опасна через торрент бесплатно! Внесите свою лепту в развитие PiratBit!
      Комментировать посты могут только пользователи прошедшие не сложную регистрацию
      Показать сообщения:    

      Особо опасна через торрент
      Скачать бесплатно Особо опасна
      Особо опасна скачать торрент
      Особо опасна смотреть онлайн
      Cкачать фильм Особо опасна бесплатно
      Особо опасна скачать торрент в хорошем качестве
      Особо опасна смотреть онлайн бесплатно в хорошем качестве


      Вы не можете начинать темы
      Вы не можете отвечать на сообщения
      Вы не можете редактировать свои сообщения
      Вы не можете удалять свои сообщения
      Вы не можете голосовать в опросах
      Вы не можете прикреплять файлы к сообщениям
      Вы можете скачивать файлы