2 сезон

iTunes

MVO

1

2 сезон

iTunes

iTunes

1 сезон

RePack

30

Новинка

ВАЖНО

ИГРА 18+

pack

RePack

MK11
pack

Легкие деньги

RePack

jed

RePack

fifa19

RePack

RDR2

RePack

NEED FOR SPEED™ PAYBACK

4 сезон

9 сезон

Бесстыжие 9 сезон

Все сериалы

все сериалы на PB.wtf

RePack

FAR CRY 5

Anonymous, добрый вечер, мы не успеваем собрать деньги на оплату серверов за декабрь и январь, помогите нам пожалуйста в это трудное время. В качестве благодарности мы отключим Вам всю рекламу на сайте (укажите свой ник в строку Ваше имя)!

×
  
Magnet ссылка

Ограбление по-итальянски / The Italian Job (Ф. Гэри Грей) [2003 г., боевик, триллер, криминал, BDRip 720p] DUB + DVO (60 Fps) pb.wtf

Ограбление по-итальянски через торрент pb.wtf

Размер: 3.92 GB | Добавлен: 5 лет 7 мес. назад | Торрент скачан:199 раз
Скачать  

22-05-2015 11:31 Ограбление по-итальянски Скачать торрент  

Ограбление по-итальянски / The Italian Job
Год выпуска: 2003
Страна: США, Франция, Великобритания
Жанр: боевик, триллер, криминал
Продолжительность: 01:50:32
Перевод: Дубляж + (Профессиональный двухголосый)
Субтитры: Russian

Режиссер: Ф. Гэри Грей
Продюссер: Дональд Де Лайн, Тим Беван, Гвидо Черасуоло
Сценарий: Трой Кеннеди-Мартин, Донна Пауэрс, Уэйн Пауэрс

Бюджет: $60 000 000
Премьера в мире: 30 мая 2003

IMDB 7.00 (258 525)


В ролях: Марк Уолберг, Шарлиз Терон, Эдвард Нортон, Джейсон Стэйтем, Сет Грин, Ясин Бей, Дональд Сазерленд, Фрэнки Джи, Олек Крупа, Оскар Нунез,

Роли дублировали: Иван Агапов, Лидия Вележева, Алексей Иващенко, Александр Рахленко, Сергей Бурунов

Описание: Джон Бриджер всегда умел спланировать идеальное ограбление. Вместе со своей командой опытных бандитов он провернул не одно дело, но теперь решил уйти на покой. Впереди у Бриджера последнее задание: кража золотых слитков, в которой принимают участие инсайдер Стив, водитель Роб, взрыватель Левое ухо, технарь Лайл и Чарли — верный друг Бриджера и второй «планировщик» в их команде. Ограбление, изящное и быстрое, было разыграно как по нотам, но после его завершения веселье преступников было омрачено предательством...

Качество: BDRip 720p / 60 Fps
Формат: MKV
Видео кодек: H.264
Аудио кодек: AC3
Видео: x264, 1280 x 544 (2,35:1), 4214 kbps, 59,880 fps, ( 0.101 bpp)
Аудио#1: AC-3, 48.0 KHz, 6 ch, 384 Kbps (Russian DUB (Позитив-Мультимедиа) )
Аудио#2: AC-3, 48.0 KHz, 6 ch, 384 Kbps (Russian DVO (НТВ+) )



скриншот   скриншот   скриншот   скриншот   скриншот   скриншот  Автор рипа: slaventi-69

x264 [info]: frame I:2741 Avg QP:15.34 size: 99078
x264 [info]: frame P:103525 Avg QP:18.18 size: 21121
x264 [info]: frame B:291292 Avg QP:21.55 size: 3830
x264 [info]: consecutive B-frames: 3.1% 5.1% 13.8% 17.7% 60.3%


Общее
Уникальный идентификатор : 204253449295709940341181621285477216235 (0x99A9C88E7EAE20A8B6D3053EB538EFEB)
Полное имя : D:\The.Italian.Job(2003).BDRip.720p.(60 Fps).mkv
Формат : Matroska
Версия формата : Version 4 / Version 2
Размер файла : 3,92 Гбайт
Продолжительность : 1 ч. 50 м.
Общий поток : 5083 Кбит/сек
Название фильма : Ограбление по-итальянски / The Italian Job (2003) BDRip 720p (60 Fps)
Дата кодирования : UTC 2015-05-22 06:22:16
Программа кодирования : mkvmerge v6.2.0 ('Promised Land') built on Apr 28 2013 12:22:01
Библиотека кодирования : libebml v1.3.0 + libmatroska v1.4.0

Видео
Идентификатор : 1
Формат : AVC
Формат/Информация : Advanced Video Codec
Профиль формата : High@L4.1
Параметр CABAC формата : Да
Параметр ReFrames формата : 4 кадра
Идентификатор кодека : V_MPEG4/ISO/AVC
Продолжительность : 1 ч. 50 м.
Битрейт : 4214 Кбит/сек
Ширина : 1280 пикселей
Высота : 544 пикселя
Соотношение сторон : 2,35:1
Режим частоты кадров : Постоянный
Частота кадров : 59,880 кадров/сек
Частота кадров в оригинале : 59,940 кадров/сек
Цветовое пространство : YUV
Субдискретизация насыщенности : 4:2:0
Битовая глубина : 8 бит
Тип развёртки : Прогрессивная
Бит/(Пиксели*Кадры) : 0.101
Размер потока : 3,25 Гбайт (83%)
Заголовок : The Italian Job (2003) BDRip 720p (60 Fps).mkv
Библиотека кодирования : x264 core 130 r2273 b3065e6
Настройки программы : cabac=1 / ref=4 / deblock=1:-3:-3 / analyse=0x3:0x113 / me=umh / subme=8 / psy=1 / psy_rd=1.00:0.00 / mixed_ref=1 / me_range=32 / chroma_me=1 / trellis=2 / 8x8dct=1 / cqm=0 / deadzone=21,11 / fast_pskip=1 / chroma_qp_offset=-2 / threads=3 / lookahead_threads=1 / sliced_threads=0 / nr=0 / decimate=1 / interlaced=0 / bluray_compat=0 / constrained_intra=0 / bframes=4 / b_pyramid=2 / b_adapt=2 / b_bias=0 / direct=1 / weightb=1 / open_gop=0 / weightp=2 / keyint=250 / keyint_min=25 / scenecut=40 / intra_refresh=0 / rc_lookahead=50 / rc=crf / mbtree=1 / crf=16.0 / qcomp=0.60 / qpmin=0 / qpmax=69 / qpstep=4 / ip_ratio=1.40 / aq=1:1.00
Язык : English
Default : Да
Forced : Нет

Аудио #1
Идентификатор : 2
Формат : AC-3
Формат/Информация : Audio Coding 3
Расширение режима : CM (complete main)
Параметр Endianness формата : Big
Идентификатор кодека : A_AC3
Продолжительность : 1 ч. 50 м.
Вид битрейта : Постоянный
Битрейт : 384 Кбит/сек
Каналы : 6 каналов
Расположение каналов : Front: L C R, Side: L R, LFE
Частота : 48,0 КГц
Битовая глубина : 16 бит
Метод сжатия : С потерями
Размер потока : 304 Мбайт (8%)
Заголовок : DUB (Позитив-Мультимедиа)
Язык : Russian
Default : Да
Forced : Нет

Аудио #2
Идентификатор : 3
Формат : AC-3
Формат/Информация : Audio Coding 3
Расширение режима : CM (complete main)
Параметр Endianness формата : Big
Идентификатор кодека : A_AC3
Продолжительность : 1 ч. 50 м.
Вид битрейта : Постоянный
Битрейт : 384 Кбит/сек
Каналы : 6 каналов
Расположение каналов : Front: L C R, Side: L R, LFE
Частота : 48,0 КГц
Битовая глубина : 16 бит
Метод сжатия : С потерями
Размер потока : 304 Мбайт (8%)
Заголовок : DVO (НТВ+)
Язык : Russian
Default : Нет
Forced : Нет

Текст
Идентификатор : 4
Формат : UTF-8
Идентификатор кодека : S_TEXT/UTF8
Идентификатор кодека/Информация : UTF-8 Plain Text
Язык : Russian
Default : Нет
Forced : Нет


Ограбление по-итальянски скачать торрент


pb.wtf



Скачать Ограбление по-итальянски через торрент http://pic.kartinco.top/images/11/purh8.jpg Скачать фильм Ограбление по-итальянски через торрент бесплантно в хорошем качестве Описание: Джон Бриджер всегда умел спланировать идеальное ограбление. Вместе со своей командой опытных бандитов он провернул не одно дело, ... 9.9 10 14
Info! Золотая раздача, скачанное не засчитывается.
Торрент: Зарегистрирован [2015-05-22 11:31] · скачан: 199 раз
Статус: √ проверено
Размер: 3.92 GB
Как cкачать? Как скачать Ограбление по-итальянски через торрент | UTorrent

% Раздел Тема Автор DL S | L
Фильмы (WEB-DL 720p, 1080p) [ 18.7 GB ] Ограбление по-итальянски / The Italian Job [2003 WEB-DL 1080p ] DUB+4xDVO+3xMVO+6xAVO bober100 Скачать
1 | 0
Релизы по Парсеру [Игры, Сериалы и Фильмы и другое...] [ 53.04 GB ] Ограбление по-итальянски / The Italian Job BDRemux 1080p | D P P2 A DEVI Скачать
1 | 0
Фильмы [HD 720p, 1080p] (Хороший звук DUB, MVO) [ 13.86 GB ] Ограбление по-итальянски / The Italian Job [2003 BDRip 1080p DUB MVO DVO AVO] -Lockdown- Скачать
1 | 0
Фильмы 2001-2005 [ 2.74 GB ] Ограбление по-итальянски / The Italian Job [2003 BDRip ] _KaisiK_ Скачать
1 | 0
Фильмы [HD 720p, 1080p] (Хороший звук DUB, MVO) [ 6.68 GB ] Ограбление По-Итальянски / The Italian Job [2003 BDRip 720p] jb_alex Скачать
1 | 0
Фильмы 2001-2005 [ 2.18 GB ] Ограбление по-итальянски / The Italian Job [2003 BDRip] -=BIGBOSS=- Скачать
1 | 0
Фильмы [HD 720p, 1080p] (Хороший звук DUB, MVO) [ 4.72 GB ] Ограбление по-итальянски / The Italian Job [2003 BDRip 720p] diletant Скачать
1 | 0

28-11-2019 20:33  

Отключить всю рекламу на сайте

22-05-2015 12:38 Ограбление по-итальянски Скачать торрент  

Фильм супер.. Смотрел раз 15..один из лучших по тематике ограбленийpb.wtf



22-05-2015 14:07 Ограбление по-итальянски Скачать торрент  

Ferz_a, Да ну..ты мало видел значит.pb.wtf



22-05-2015 15:44 Ограбление по-итальянски Скачать торрент  

Молоденькая Шарлиз...Ммм, скачаю пожалуй для коллекции. Раздающему большое спасибо.pb.wtf



25-05-2015 17:21 Ограбление по-итальянски Скачать торрент  

slaventi-69, русская дорога не 6-ти канальная?!, как и в "Танго и Кэш",ранее выложенного Вами.pb.wtf



26-05-2015 20:34 Ограбление по-итальянски Скачать торрент  

Ворон писал(а):

Ferz_a, Да ну..ты мало видел значит.

Я видел все, начиная где то с 95 года, и тоже скажу, что этот фильм один из лучших в своем жанре, и честно говоря не понимаю ваших возроженийpb.wtf



    Дорогой пользователь! Огромная просьба, поблагодарите релизера, оцените раздачу и оставьте свои комментарий, если Вы скачали Ограбление по-итальянски через торрент бесплатно! Внесите свою лепту в развитие PiratBit!
    Комментировать посты могут только пользователи прошедшие не сложную регистрацию
    Показать сообщения:    

    Ограбление по-итальянски через торрент
    Скачать бесплатно Ограбление по-итальянски
    Ограбление по-итальянски скачать торрент
    Ограбление по-итальянски смотреть онлайн
    Cкачать фильм Ограбление по-итальянски бесплатно
    Ограбление по-итальянски скачать торрент в хорошем качестве
    Ограбление по-итальянски смотреть онлайн бесплатно в хорошем качестве


    Вы не можете начинать темы
    Вы не можете отвечать на сообщения
    Вы не можете редактировать свои сообщения
    Вы не можете удалять свои сообщения
    Вы не можете голосовать в опросах
    Вы не можете прикреплять файлы к сообщениям
    Вы можете скачивать файлы