Ссылка на приватное зеркало нашего сайта всего за 1$. Внимание количество ограничено!!!

2 сезон

iTunes

1 сезон

1

iTunes

iTunes

iTunes

1 сезон

RePack

30

ИГРА 18+

pack

ВАЖНО

!!Акция!!

Alien_RageХит недели

RePack

MK11
pack

Забери бонус

RePack

jed

!!Акция!!

Alien_Rage

RePack

fifa19

RePack

Assassins Creed: Odyssey

RePack

NEED FOR SPEED™ PAYBACK

4 сезон

9 сезон

Бесстыжие 9 сезон

Все сериалы

все сериалы на PB.wtf

RePack

FAR CRY 5
  

Криминальное наследство / Серии: 1-4 из 4 (Алексей Луканев) [2015, детектив,драма, SATRip-AVC] pb.wtf

Криминальное наследство через торрент pb.wtf

Раздают: 1 [ 0 KB/s ]
Размер: 1.83 GB | Добавлен: 5 лет 5 мес. назад | Торрент скачан:651 раз
Скачать  

22-05-2015 13:04 Криминальное наследство Скачать торрент  

Криминальное наследство Год выпуска: 2015
Производство: Россия,ООО «Фильм „232“»
Жанр: детектив,драма
Продолжительность: ~00:45:30 серия
Субтитры: нет

Режиссёр: Алексей Луканев

В ролях: Александр Галибин, Кирилл Запорожский, Денис Синявский, Анастасия Лукьянова, Екатерина Молоховская, Светлана Чернова, Сергей Яковлев, Илья Иосифов

Описание: Многие годы тренер по биатлону Борис Ермаков скрывал от семьи неприглядную правду о своей жизни. Когда-то, в лихие девяностые, он был киллером крупной преступной группировки. Однажды прошлое напомнило о себе самым безжалостным образом: преступники похитили младшего сына Бориса — Андрея. Борис должен был вспомнить прежнее ремесло и убить своего бывшего воспитанника, а ныне крупного бизнесмена Струкова. Только вот сам тренер из-за проблем со здоровьем оказался не в состоянии «выполнить заказ», и это пришлось сделать старшему сыну Бориса, Денису… Андрей вернулся домой, но Денис попал в тюрьму по обвинению в убийстве. Все пошло по плану неизвестного шантажиста, оставившего семье Ермаковых немало вопросов. Сможет ли Денис разобраться во всем, что произошло в его семье, и вычислить человека, который ими манипулирует?



Качество: SATRip-AVC
Формат: MKV
Видео кодек: H.264
Аудио кодек: AC3
Видео: MPEG4 Video (H264), 720x400, 25fps,1421 Kbps,bit/pixel 0.155
Аудио: AC3 48000Hz, stereo, 192kbps,2 ch
Общее
Уникальный идентификатор : 203417371878902868727951547227160116388 (0x9908C2C1E39DE6AAA94BB3DE475EFCA4)
Полное имя : E:\Криминальное наследство\01 серия.mkv
Формат : Matroska
Версия формата : Version 2
Размер файла : 486 Мбайт
Продолжительность : 45 м.
Общий поток : 1421 Кбит/сек
Дата кодирования : UTC 2015-05-22 12:32:13
Программа кодирования : mkvmerge v5.8.0 ('No Sleep / Pillow') built on Sep 2 2012 15:37:04
Библиотека кодирования : libebml v1.2.3 + libmatroska v1.3.0

Видео
Идентификатор : 1
Формат : AVC
Формат/Информация : Advanced Video Codec
Профиль формата : High@L3.1
Параметр CABAC формата : Да
Параметр ReFrames формата : 9 кадров
Идентификатор кодека : V_MPEG4/ISO/AVC
Продолжительность : 45 м.
Битрейт : 1201 Кбит/сек
Ширина : 720 пикселей
Высота : 400 пикселей
Соотношение сторон : 16:9
Режим частоты кадров : Постоянный
Частота кадров : 25,000 кадров/сек
Цветовое пространство : YUV
Субдискретизация насыщенности : 4:2:0
Битовая глубина : 8 бит
Тип развёртки : Прогрессивная
Бит/(Пиксели*Кадры) : 0.167
Размер потока : 411 Мбайт (85%)
Библиотека кодирования : x264 core 144 r2525 40bb568
Настройки программы : cabac=1 / ref=9 / deblock=1:-3:-3 / analyse=0x3:0x113 / me=umh / subme=9 / psy=1 / psy_rd=1.00:0.02 / mixed_ref=1 / me_range=32 / chroma_me=0 / trellis=1 / 8x8dct=1 / cqm=0 / deadzone=21,11 / fast_pskip=1 / chroma_qp_offset=-3 / threads=6 / lookahead_threads=1 / sliced_threads=0 / nr=0 / decimate=0 / interlaced=0 / bluray_compat=0 / constrained_intra=0 / bframes=9 / b_pyramid=2 / b_adapt=1 / b_bias=0 / direct=1 / weightb=1 / open_gop=0 / weightp=2 / keyint=240 / keyint_min=24 / scenecut=40 / intra_refresh=0 / rc_lookahead=40 / rc=crf / mbtree=1 / crf=18.0 / qcomp=0.60 / qpmin=0 / qpmax=69 / qpstep=4 / ip_ratio=1.40 / aq=1:1.00
Default : Да
Forced : Нет
colour_range : Limited
Основные цвета : BT.601 PAL
Характеристики трансфера : BT.470 System B, BT.470 System G
Коэффициенты матрицы : BT.601

Аудио
Идентификатор : 2
Формат : AC-3
Формат/Информация : Audio Coding 3
Расширение режима : CM (complete main)
Параметр Endianness формата : Big
Идентификатор кодека : A_AC3
Продолжительность : 47 м.
Вид битрейта : Постоянный
Битрейт : 192 Кбит/сек
Каналы : 2 канала
Расположение каналов : Front: L R
Частота : 48,0 КГц
Битовая глубина : 16 бит
Метод сжатия : С потерями
Размер потока : 65,7 Мбайт (14%)
Default : Да
Forced : Нет
Добавлена 3-4 серия.Рекламы нет.pb.wtf



Скачать Криминальное наследство через торрент http://i69.fastpic.ru/big/2015/0522/b9/634d5c05063ea3f2a92f6e20c8670ab9.jpg Скачать фильм Криминальное наследство через торрент бесплантно в хорошем качестве Описание: Многие годы тренер по биатлону Борис Ермаков скрывал от семьи неприглядную правду о своей жизни. Когда-то, в лихие девяностые, он ... 9.8 10 18
Торрент: Зарегистрирован [2015-05-22 17:27] · скачан: 651 раз
Статус: √ проверено
Размер: 1.83 GB
Как cкачать? Как скачать Криминальное наследство через торрент | qTorrent

% Раздел Тема Автор DL S | L
Наши сериалы [ 7.39 GB ] ьное наследство / Серии: 1-4 из 4 [2015 HDTVRip 720p] bober100 Скачать
1 | 0
Наши сериалы [ 2.82 GB ] ьное наследство / Серии: 1-4 из 4 [2015 HDTVRip-AVC] bober100 Скачать
1 | 1
Наши сериалы [ 2.15 GB ] ьное наследство / Серии: 1-4 из 4 [2015 HDTVRip] bober100 Скачать
1 | 0
Наши сериалы [ 14.41 GB ] ьное наследство / Серии: 1-4 из 4 [2015 HDTV 1080i] bober100 Скачать
1 | 0

28-11-2019 20:33  

Отключить всю рекламу на сайте

    Дорогой пользователь! Огромная просьба, поблагодарите релизера, оцените раздачу и оставьте свои комментарий, если Вы скачали Криминальное наследство через торрент бесплатно! Внесите свою лепту в развитие PiratBit!
    Комментировать посты могут только пользователи прошедшие не сложную регистрацию
    Показать сообщения:    

    Криминальное наследство через торрент
    Скачать бесплатно Криминальное наследство
    Криминальное наследство скачать торрент
    Криминальное наследство смотреть онлайн
    Cкачать фильм Криминальное наследство бесплатно
    Криминальное наследство скачать торрент в хорошем качестве
    Криминальное наследство смотреть онлайн бесплатно в хорошем качестве


    Вы не можете начинать темы
    Вы не можете отвечать на сообщения
    Вы не можете редактировать свои сообщения
    Вы не можете удалять свои сообщения
    Вы не можете голосовать в опросах
    Вы не можете прикреплять файлы к сообщениям
    Вы можете скачивать файлы