2 сезон

iTunes

MVO

1

2 сезон

iTunes

iTunes

1 сезон

RePack

30

Новинка

ВАЖНО

ИГРА 18+

pack

RePack

MK11
pack

Легкие деньги

RePack

jed

RePack

fifa19

RePack

RDR2

RePack

NEED FOR SPEED™ PAYBACK

4 сезон

9 сезон

Бесстыжие 9 сезон

Все сериалы

все сериалы на PB.wtf

RePack

FAR CRY 5

Anonymous, добрый вечер, мы не успеваем собрать деньги на оплату серверов за декабрь и январь, помогите нам пожалуйста в это трудное время. В качестве благодарности мы отключим Вам всю рекламу на сайте (укажите свой ник в строку Ваше имя)!

×
  
Magnet ссылка

На гребне волны / Point Break (Кэтрин Бигелоу) [1991 г., боевик, триллер, криминал, BDRip 720p] MVO + DVO + DUB (60 Fps) pb.wtf

На гребне волны через торрент pb.wtf

Качают: 1 [ 0 KB/s ]
Размер: 6.15 GB | Добавлен: 5 лет 8 мес. назад | Торрент скачан:152 раза
Скачать  

22-05-2015 15:15 На гребне волны Скачать торрент  

На гребне волны / Point Break
Год выпуска: 1991
Страна: США, Япония
Жанр: боевик, триллер, криминал
Продолжительность: 02:08:36
Перевод: Многоголосый, закадровый - Двухголосый , закадровый - Дубляж
Субтитры: Русские

Режиссер: Кэтрин Бигелоу
Продюссер: Питер Абрамс, Роберт Л. Леви, Джеймс Кэмерон
Сценарий: В. Питер Айлифф, Рик Кинг

Бюджет: $24 000 000
Премьера в мире: 12 июля 1991

IMDB 7.20 (92 383)


В ролях: Патрик Суэйзи, Киану Ривз, Гэри Бьюзи, Лори Петти, Джон К. МакГинли, Джеймс ЛеГрос, Джон Филбин, Боджесси Кристофер, Джулиан Рейес, Дэниэл Бир,

Роли дублировали: Евгений Паперный, Владислав Пупков, Виталий Дорошенко, Людмила Логийко

Описание: Таинственная банда серфингистов, среди белого дня, совершает ограбления банков. Полиция и ФБР поражены профессиональностью и скоростью проведения преступлений.Следствие ведет молодой и претенциозный агент ФБР, который, рискуя жизнью, внедряется в банду и раскрывает это дело, но неожиданно для самого себя он осознает, что вернуться к нормальной жизни он уже не сможет.


Качество: BDRip 720p
Формат: MKV
Видео кодек: H.264
Аудио кодек: AC3
Видео: x264, 1280 x 544 (2,35:1), 5674 kbps, 59,880 fps, ( 0.136 bpp)
Аудио#1: AC-3, 48.0 KHz, 6 ch, 384 Kbps (Russian ( MVO Kinomaniya ))
Аудио#2: AC-3, 48.0 KHz, 6 ch, 384 Kbps (Russian ( DVO ( П.Гланц и Н.Королёва ))
Аудио#3: AC-3, 48.0 KHz, 6 ch, 384 Kbps (Russian ( DUB ))
Аудио#4: AC-3, 48.0 KHz, 6 ch, 384 Kbps (English )



скриншот   скриншот   скриншот   скриншот   скриншот   скриншот  Автор рипа: slaventi-69

x264 [info]: frame I:2358 Avg QP:14.96 size: 71129
x264 [info]: frame P:117062 Avg QP:18.03 size: 23718
x264 [info]: frame B:319681 Avg QP:19.88 size: 6903
x264 [info]: consecutive B-frames: 1.7% 5.3% 22.8% 23.8% 46.4%


Общее
Уникальный идентификатор : 245095531247037895137339838432819818260 (0xB863AEAA52968A8280C87F2FD0242F14)
Полное имя : D:\Point Break (1991).BDRip.720p.(60 Fps).mkv
Формат : Matroska
Версия формата : Version 4 / Version 2
Размер файла : 6,15 Гбайт
Продолжительность : 2 ч. 2 м.
Общий поток : 7213 Кбит/сек
Название фильма : На гребне волны / Point Break (1991) BDRip 720p ( 60 Fps )
Дата кодирования : UTC 2015-04-15 13:01:54
Программа кодирования : mkvmerge v6.2.0 ('Promised Land') built on Apr 28 2013 12:22:01
Библиотека кодирования : libebml v1.3.0 + libmatroska v1.4.0

Видео
Идентификатор : 1
Формат : AVC
Формат/Информация : Advanced Video Codec
Профиль формата : High@L4.1
Параметр CABAC формата : Да
Параметр ReFrames формата : 4 кадра
Идентификатор кодека : V_MPEG4/ISO/AVC
Продолжительность : 2 ч. 2 м.
Битрейт : 5674 Кбит/сек
Ширина : 1280 пикселей
Высота : 544 пикселя
Соотношение сторон : 2,35:1
Режим частоты кадров : Постоянный
Частота кадров : 59,880 кадров/сек
Частота кадров в оригинале : 59,940 кадров/сек
Цветовое пространство : YUV
Субдискретизация насыщенности : 4:2:0
Битовая глубина : 8 бит
Тип развёртки : Прогрессивная
Бит/(Пиксели*Кадры) : 0.136
Размер потока : 4,72 Гбайт (77%)
Заголовок : Point Break (1991) BDRip 720p ( 60 Fps ).mkv
Библиотека кодирования : x264 core 130 r2273 b3065e6
Настройки программы : cabac=1 / ref=4 / deblock=1:-1:-1 / analyse=0x3:0x113 / me=umh / subme=7 / psy=1 / psy_rd=1.00:0.00 / mixed_ref=1 / me_range=24 / chroma_me=1 / trellis=2 / 8x8dct=1 / cqm=0 / deadzone=21,11 / fast_pskip=1 / chroma_qp_offset=-2 / threads=3 / lookahead_threads=1 / sliced_threads=0 / nr=0 / decimate=1 / interlaced=0 / bluray_compat=0 / constrained_intra=0 / bframes=4 / b_pyramid=2 / b_adapt=2 / b_bias=0 / direct=3 / weightb=1 / open_gop=0 / weightp=2 / keyint=250 / keyint_min=25 / scenecut=40 / intra_refresh=0 / rc_lookahead=50 / rc=2pass / mbtree=1 / bitrate=5674 / ratetol=1.0 / qcomp=0.60 / qpmin=0 / qpmax=69 / qpstep=4 / cplxblur=20.0 / qblur=0.5 / ip_ratio=1.40 / aq=1:1.00
Язык : English
Default : Нет
Forced : Нет

Аудио #1
Идентификатор : 2
Формат : AC-3
Формат/Информация : Audio Coding 3
Расширение режима : CM (complete main)
Параметр Endianness формата : Big
Идентификатор кодека : A_AC3
Продолжительность : 2 ч. 2 м.
Вид битрейта : Постоянный
Битрейт : 384 Кбит/сек
Каналы : 6 каналов
Расположение каналов : Front: L C R, Side: L R, LFE
Частота : 48,0 КГц
Битовая глубина : 16 бит
Метод сжатия : С потерями
Размер потока : 335 Мбайт (5%)
Заголовок : MVO Kinomaniya
Язык : Russian
Default : Да
Forced : Нет

Аудио #2
Идентификатор : 3
Формат : AC-3
Формат/Информация : Audio Coding 3
Расширение режима : CM (complete main)
Параметр Endianness формата : Big
Идентификатор кодека : A_AC3
Продолжительность : 2 ч. 2 м.
Вид битрейта : Постоянный
Битрейт : 384 Кбит/сек
Каналы : 6 каналов
Расположение каналов : Front: L C R, Side: L R, LFE
Частота : 48,0 КГц
Битовая глубина : 16 бит
Метод сжатия : С потерями
Размер потока : 335 Мбайт (5%)
Заголовок : Двуголосый закадровый, П.Гланц и Н.Королёва
Язык : Russian
Default : Нет
Forced : Нет

Аудио #3
Идентификатор : 4
Формат : AC-3
Формат/Информация : Audio Coding 3
Расширение режима : CM (complete main)
Параметр Endianness формата : Big
Идентификатор кодека : A_AC3
Продолжительность : 2 ч. 2 м.
Вид битрейта : Постоянный
Битрейт : 384 Кбит/сек
Каналы : 6 каналов
Расположение каналов : Front: L C R, Side: L R, LFE
Частота : 48,0 КГц
Битовая глубина : 16 бит
Метод сжатия : С потерями
Размер потока : 335 Мбайт (5%)
Заголовок : Дублированный
Язык : Russian
Default : Нет
Forced : Нет

Аудио #4
Идентификатор : 5
Формат : AC-3
Формат/Информация : Audio Coding 3
Расширение режима : CM (complete main)
Параметр Endianness формата : Big
Идентификатор кодека : A_AC3
Продолжительность : 2 ч. 2 м.
Вид битрейта : Постоянный
Битрейт : 384 Кбит/сек
Каналы : 6 каналов
Расположение каналов : Front: L C R, Side: L R, LFE
Частота : 48,0 КГц
Битовая глубина : 16 бит
Метод сжатия : С потерями
Размер потока : 335 Мбайт (5%)
Заголовок : Original
Язык : English
Default : Нет
Forced : Нет

Текст #1
Идентификатор : 6
Формат : UTF-8
Идентификатор кодека : S_TEXT/UTF8
Идентификатор кодека/Информация : UTF-8 Plain Text
Заголовок : Russian
Язык : Russian
Default : Нет
Forced : Нет

Текст #2
Идентификатор : 7
Формат : UTF-8
Идентификатор кодека : S_TEXT/UTF8
Идентификатор кодека/Информация : UTF-8 Plain Text
Заголовок : Русские (перевод по оригинальным субтитрам)
Язык : Russian
Default : Нет
Forced : Нет

Меню
00:00:00.000 : en:00:00:00.000
00:03:08.187 : en:00:03:08.187
00:06:18.336 : en:00:06:18.336
00:09:38.160 : en:00:09:38.160
00:13:25.221 : en:00:13:25.221
00:16:44.128 : en:00:16:44.128
00:20:59.007 : en:00:20:59.007
00:24:04.734 : en:00:24:04.734
00:27:35.945 : en:00:27:35.945
00:31:05.822 : en:00:31:05.822
00:39:00.588 : en:00:39:00.588
00:43:33.694 : en:00:43:33.694
00:49:32.886 : en:00:49:32.886
00:58:36.221 : en:00:58:36.221
01:02:16.566 : en:01:02:16.566
01:10:29.558 : en:01:10:29.558
01:16:42.222 : en:01:16:42.222
01:23:43.476 : en:01:23:43.476
01:27:15.939 : en:01:27:15.939
01:34:51.310 : en:01:34:51.310
01:41:14.276 : en:01:41:14.276
01:50:13.690 : en:01:50:13.690
01:55:20.955 : en:01:55:20.955
01:58:36.442 : en:01:58:36.442


На гребне волны скачать торрент


pb.wtf



Скачать На гребне волны через торрент https://pic.kartinco.top/images/11/m6w8y.jpg Скачать фильм На гребне волны через торрент бесплантно в хорошем качестве Описание: Таинственная банда серфингистов, среди белого дня, совершает ограбления банков. Полиция и ФБР поражены профессиональностью и ... 9.9 10 13
Info! Золотая раздача, скачанное не засчитывается.
Торрент: Зарегистрирован [2015-05-22 15:15] · скачан: 152 раз
Статус: √ проверено
Размер: 6.15 GB
Как cкачать? Как скачать На гребне волны через торрент | UTorrent

% Раздел Тема Автор DL S | L
Фильмы (DVD фильмы) [ 5.87 GB ] На гребне волны / Point Break [2015 DVD9] R5 voovaz Скачать
1 | 0
Ultra HD (UHD: 2K, 4K, 8K) — видео сверхвысокой чёткости [ 56.24 GB ] На гребне волны / Point Break [2015 UHD BDRemux 2160p] DUB [] +AVO [Ю.Живов] bober100 Скачать
1 | 0
Фильмы (WEB-DL 720p, 1080p) [ 10.6 GB ] На гребне волны / Point Break [2015 WEB-DL 1080p] DUB + AVO [] [Open Matte] sheker187 Скачать
1 | 0
Фильмы 2015 [DVDrip, WEB-DLRip, HDrip] [ 749 MB ] На гребне волны / Point Break [2015 Германия Китай HDRip by _Один_777] Dub () Один 777 Скачать
1 | 0
Фильмы [HD 720p, 1080p] (Хороший звук DUB, MVO) [ 7.26 GB ] На гребне волны / Point Break [2015 BDRip 720p] DUB potroks Скачать
1 | 0
Фильмы [HD 720p, 1080p] (Хороший звук DUB, MVO) [ 13.1 GB ] На гребне волны / Point Break [2015 BDRip 1080p] DUB $-DRON-$ Скачать
1 | 0
Фильмы 2015 [DVDrip, WEB-DLRip, HDrip] [ 1.46 GB ] На гребне волны / Point Break [2015 BDRip] DUB Twi7ter Скачать
1 | 0

28-11-2019 20:33  

Отключить всю рекламу на сайте

22-05-2015 15:40 На гребне волны Скачать торрент  

Спасибо Дружище,Отличный фильм,с удовольствием пересмотрюpb.wtf



22-05-2015 15:44 На гребне волны Скачать торрент  

Пожалуйста, смотрите в удовольствие.pb.wtf



22-05-2015 15:53 На гребне волны Скачать торрент  

Класика. Фильм на века.pb.wtf



22-05-2015 16:00 На гребне волны Скачать торрент  

Спасибо. Посмотрю.
Но почему 720 ,а не 1080 ? Жаль.pb.wtf



22-05-2015 17:17 На гребне волны Скачать торрент  

Спаааасибо
Блин элита, фильм реликвия...pb.wtf



23-05-2015 07:55 На гребне волны Скачать торрент  

фильм супер! ХОТЬ И СТАРЕНЬКИЙ. :film: yes :shoot2: pb.wtf



23-05-2015 08:53 На гребне волны Скачать торрент  

Без Гаврилова-это не кино, а бездушное языко-бряканье!!!! :zol:pb.wtf



    Дорогой пользователь! Огромная просьба, поблагодарите релизера, оцените раздачу и оставьте свои комментарий, если Вы скачали На гребне волны через торрент бесплатно! Внесите свою лепту в развитие PiratBit!
    Комментировать посты могут только пользователи прошедшие не сложную регистрацию
    Показать сообщения:    

    На гребне волны через торрент
    Скачать бесплатно На гребне волны
    На гребне волны скачать торрент
    На гребне волны смотреть онлайн
    Cкачать фильм На гребне волны бесплатно
    На гребне волны скачать торрент в хорошем качестве
    На гребне волны смотреть онлайн бесплатно в хорошем качестве


    Вы не можете начинать темы
    Вы не можете отвечать на сообщения
    Вы не можете редактировать свои сообщения
    Вы не можете удалять свои сообщения
    Вы не можете голосовать в опросах
    Вы не можете прикреплять файлы к сообщениям
    Вы можете скачивать файлы