Ссылка на приватное зеркало нашего сайта всего за 1$. Внимание количество ограничено!!!

2 сезон

iTunes

1 сезон

1

2 сезон

2 сезон

iTunes

1 сезон

RePack

30

Ultimate

ВАЖНО

ИГРА 18+

pack

RePack

MK11
pack

Забери бонус

RePack

jed

!!Акция!!

Alien_Rage

RePack

fifa19

RePack

Assassins Creed: Odyssey

RePack

NEED FOR SPEED™ PAYBACK

4 сезон

9 сезон

Бесстыжие 9 сезон

Все сериалы

все сериалы на PB.wtf

RePack

FAR CRY 5
  

Между / Between / Сезон: 1 / Серии 1-6 из 6 (Джон Кассар / Jon Cassar, Майкл МакГоун / Michael McGowan) [2015 , Канада, драма, HDTVRip, MVO] [BaibaKo] pb.wtf

Между через торрент pb.wtf

Размер: 3.81 GB | Добавлен: 5 лет 5 мес. назад | Торрент скачан:55 раз
Скачать  

23-05-2015 03:31 Между Скачать торрент  

Между / Between


  • Год выпуска: 2015

  • Страна: Канада
  • Жанр: драма
  • Продолжительность: 00:43:26 (Серия)
  • Перевод: Профессиональный многоголосый закадровый [BaibaKo]

  • Режиссер: Джон Кассар / Jon Cassar, Майкл МакГоун / Michael McGowan
  • В ролях:

    Джим Уотсон (Pat), Райан Аллен (Gord), Дженнет МакКарди (Wiley), Уэсли Морган (Kevin Hale), Джек Мюррэй (Mark (2015)), Shailyn Pierre-Dixon (Frances), Джесси Бостик (Felix), Кристал Хоуп Носбаум (Amanda), Katie Advani (Tween Girl), Шэйлин Гарнетт (Ms. Symonds), Canute Gomes (Vincent), Сара Подемски (Ellen (2015))

  • Описание:
    Небольшой городок с живописным названием Красивое озеро сталкивается с ужасающей эпидемией. За 10 дней неведомая чума уничтожает 3412 из 8000 человек населения. Выясняется закономерность - умирают все, кто старше 21 года.
  • Рейтинг:



  • Качество: HDTVRip
  • Формат: :AVI
  • Видео кодек: XviD
  • Аудио кодек: MP3
  • Видео: 720x400 (16:9), 1692 kbps, 23,976 fps, 0,245 bpp
  • Аудио №1: Русский 2.0 / 48 kHz / 192 kbps
  • Аудио №2: Английский 2.0 / 48 kHz / 192 kbps
  • Релиз от: GEKADOL

    Код:

    Внимание! Раздача ведётся путём добавления новых серий; при каждом добавлении создаётся новый торрент. Чтобы начать докачку новой серии, пользователям необходимо сделать следующее:
    (1) остановить скачивание,
    (2) удалить старый торрент у себя из клиента (старые серии удалять не надо),
    (3) скачать новый торрент и запустить его у себя в клиенте вместо старого, при этом указать клиенту путь в старую папку куда и должно происходить скачивание новых серий.
    Ваш клиент при этом должен произвести хеширование (проверку) старой папки (если не производит сам - помогите ему сделать это), и будет докачивать только те серии которых у вас ещё нет. Старые серии при этом не удаляются, а продолжают раздаваться!
    Eсли вы уже удалили старые серии, то предотвратить повторную закачку старых серий можно, отжав галочку в соответствующих местах при запуске нового торрента. По возможности, желательно не удалять старые серии как можно дольше чтобы релизёр не столько продолжал раздавать старые серии, а смог сконцентрироваться на новых.


    Код:

    General
    Complete name                            : F:\Between.(S01). BaibaKo\Between.s01e01.HDTVRip.XviD.Rus.Eng.BaibaKo.tv.avi
    Format                                   : AVI
    Format/Info                              : Audio Video Interleave
    File size                                : 649 MiB
    Duration                                 : 43mn 26s
    Overall bit rate                         : 2 090 Kbps
    Writing application                      : VirtualDubMod 1.5.10.2 (build 2540/release)
    Writing library                          : VirtualDubMod build 2540/release

    Video
    ID                                       : 0
    Format                                   : MPEG-4 Visual
    Format profile                           : Advanced Simple@L5
    Format settings, BVOP                    : 2
    Format settings, QPel                    : No
    Format settings, GMC                     : No warppoints
    Format settings, Matrix                  : Default (H.263)
    Codec ID                                 : XVID
    Codec ID/Hint                            : XviD
    Duration                                 : 43mn 26s
    Bit rate                                 : 1 692 Kbps
    Width                                    : 720 pixels
    Height                                   : 400 pixels
    Display aspect ratio                     : 16:9
    Frame rate                               : 23.976 fps
    Color space                              : YUV
    Chroma subsampling                       : 4:2:0
    Bit depth                                : 8 bits
    Scan type                                : Progressive
    Compression mode                         : Lossy
    Bits/(Pixel*Frame)                       : 0.245
    Stream size                              : 526 MiB (81%)
    Writing library                          : XviD 1.2.1 (UTC 2008-12-04)

    Audio #1
    ID                                       : 1
    Format                                   : MPEG Audio
    Format version                           : Version 1
    Format profile                           : Layer 3
    Mode                                     : Joint stereo
    Mode extension                           : MS Stereo
    Codec ID                                 : 55
    Codec ID/Hint                            : MP3
    Duration                                 : 43mn 26s
    Bit rate mode                            : Constant
    Bit rate                                 : 192 Kbps
    Channel(s)                               : 2 channels
    Sampling rate                            : 48.0 KHz
    Compression mode                         : Lossy
    Stream size                              : 59.7 MiB (9%)
    Alignment                                : Aligned on interleaves
    Interleave, duration                     : 42 ms (1.00 video frame)
    Interleave, preload duration             : 504 ms

    Audio #2
    ID                                       : 2
    Format                                   : MPEG Audio
    Format version                           : Version 1
    Format profile                           : Layer 3
    Mode                                     : Joint stereo
    Mode extension                           : MS Stereo
    Codec ID                                 : 55
    Codec ID/Hint                            : MP3
    Duration                                 : 43mn 26s
    Bit rate mode                            : Constant
    Bit rate                                 : 192 Kbps
    Channel(s)                               : 2 channels
    Sampling rate                            : 48.0 KHz
    Compression mode                         : Lossy
    Stream size                              : 59.7 MiB (9%)
    Alignment                                : Aligned on interleaves
    Interleave, duration                     : 42 ms (1.00 video frame)
    Interleave, preload duration             : 504 ms




    Скриншоты:
    скриншот   скриншот   скриншот   скриншот   скриншот  
    скриншот  

    Раздача ведётся путём добавления новых серий. Добавлена 6 серия (28.06.2015).Просьба перекачать торрент файл.

    pb.wtf



  • Скачать Между через торрент http://pic1.kartinco.top/images/10/q3qs1.jpg Скачать фильм Между через торрент бесплантно в хорошем качестве Описание: Небольшой городок с живописным названием Красивое озеро сталкивается с ужасающей эпидемией. За 10 дней неведомая чума уничтожает ... 8.3 10 4
    Info! Золотая раздача, скачанное не засчитывается.
    Торрент: Зарегистрирован [2015-06-28 03:40] · скачан: 55 раз
    Статус: √ проверено
    Размер: 3.81 GB
    Как cкачать? Как скачать Между через торрент | qTorrent

    % Раздел Тема Автор DL S | L
    Зарубежные сериалы [ 6.18 GB ] Между / Between / Сезон: 1 / Серии 1-6 из 6 [2015 HDTV 720р MVO] [BaibaKo] GEKADOL Скачать
    1 | 0

    28-11-2019 20:33  

    Отключить всю рекламу на сайте

      Дорогой пользователь! Огромная просьба, поблагодарите релизера, оцените раздачу и оставьте свои комментарий, если Вы скачали Между через торрент бесплатно! Внесите свою лепту в развитие PiratBit!
      Комментировать посты могут только пользователи прошедшие не сложную регистрацию
      Показать сообщения:    

      Между через торрент
      Скачать бесплатно Между
      Между скачать торрент
      Между смотреть онлайн
      Cкачать фильм Между бесплатно
      Между скачать торрент в хорошем качестве
      Между смотреть онлайн бесплатно в хорошем качестве


      Вы не можете начинать темы
      Вы не можете отвечать на сообщения
      Вы не можете редактировать свои сообщения
      Вы не можете удалять свои сообщения
      Вы не можете голосовать в опросах
      Вы не можете прикреплять файлы к сообщениям
      Вы можете скачивать файлы