Ссылка на приватное зеркало нашего сайта всего за 1$. Внимание количество ограничено!!!

2 сезон

iTunes

1 сезон

1

2 сезон

2 сезон

iTunes

1 сезон

RePack

30

Новинка

ВАЖНО

ИГРА 18+

pack

RePack

MK11
pack

Забери бонус

RePack

jed

!!Акция!!

Alien_Rage

RePack

fifa19

RePack

Assassins Creed: Odyssey

RePack

NEED FOR SPEED™ PAYBACK

4 сезон

9 сезон

Бесстыжие 9 сезон

Все сериалы

все сериалы на PB.wtf

RePack

FAR CRY 5
  

Между / Between / Сезон: 1 / Серии 1-6 из 6 (Джон Кассар / Jon Cassar, Майкл МакГоун / Michael McGowan) [2015 , Канада, драма, HDTV 720р, MVO] [BaibaKo] pb.wtf

Между через торрент pb.wtf

Размер: 6.18 GB | Добавлен: 5 лет 5 мес. назад | Торрент скачан:34 раза
Скачать  

23-05-2015 03:38 Между Скачать торрент  

Между / Between


  • Год выпуска: 2015

  • Страна: Канада
  • Жанр: драма
  • Продолжительность: 00:43:26 (Серия)
  • Перевод: Профессиональный многоголосый закадровый [BaibaKo]

  • Режиссер: Джон Кассар / Jon Cassar, Майкл МакГоун / Michael McGowan
  • В ролях:

    Джим Уотсон (Pat), Райан Аллен (Gord), Дженнет МакКарди (Wiley), Уэсли Морган (Kevin Hale), Джек Мюррэй (Mark (2015)), Shailyn Pierre-Dixon (Frances), Джесси Бостик (Felix), Кристал Хоуп Носбаум (Amanda), Katie Advani (Tween Girl), Шэйлин Гарнетт (Ms. Symonds), Canute Gomes (Vincent), Сара Подемски (Ellen (2015))

  • Описание:
    Небольшой городок с живописным названием Красивое озеро сталкивается с ужасающей эпидемией. За 10 дней неведомая чума уничтожает 3412 из 8000 человек населения. Выясняется закономерность - умирают все, кто старше 21 года.
  • Рейтинг:



  • Качество: HDTV 720р
  • Формат: :MKV
  • Видео кодек: AVC
  • Аудио кодек: AC3
  • Видео: 1280x720 (16:9), 2378 kbps, 23,976 fps, 0,108 bpp
  • Аудио №1: русский / 5.1 / 48 kHz / 384 kbps / 16 bit |BaibaKo|
  • Аудио №2: английский / 5.1 / 48 kHz / 384 kbps / 16 bit
  • Релиз от: GEKADOL

    Код:

    Внимание! Раздача ведётся путём добавления новых серий; при каждом добавлении создаётся новый торрент. Чтобы начать докачку новой серии, пользователям необходимо сделать следующее:
    (1) остановить скачивание,
    (2) удалить старый торрент у себя из клиента (старые серии удалять не надо),
    (3) скачать новый торрент и запустить его у себя в клиенте вместо старого, при этом указать клиенту путь в старую папку куда и должно происходить скачивание новых серий.
    Ваш клиент при этом должен произвести хеширование (проверку) старой папки (если не производит сам - помогите ему сделать это), и будет докачивать только те серии которых у вас ещё нет. Старые серии при этом не удаляются, а продолжают раздаваться!
    Eсли вы уже удалили старые серии, то предотвратить повторную закачку старых серий можно, отжав галочку в соответствующих местах при запуске нового торрента. По возможности, желательно не удалять старые серии как можно дольше чтобы релизёр не столько продолжал раздавать старые серии, а смог сконцентрироваться на новых.


    Код:

    General
    Unique ID                                : 245028308390507569498251719418576042799 (0xB856BC52965C38D4AB4B9465FC72FB2F)
    Complete name                            : F:\Between.(S01).HDTV720p.BaibaKo\Between.s01e01.HDTV720p.Rus.Eng.BaibaKo.tv.mkv
    Format                                   : Matroska
    Format version                           : Version 4 / Version 2
    File size                                : 995 MiB
    Duration                                 : 43mn 26s
    Overall bit rate                         : 3 203 Kbps
    Encoded date                             : UTC 2015-05-22 19:40:51
    Writing application                      : mkvmerge v7.9.0 ('Birds') 64bit
    Writing library                          : libebml v1.3.1 + libmatroska v1.4.2
    DURATION                                 : 00:43:26.368000000
    NUMBER_OF_FRAMES                         : 81449
    NUMBER_OF_BYTES                          : 125105664
    _STATISTICS_WRITING_APP                  : mkvmerge v7.9.0 ('Birds') 64bit
    _STATISTICS_WRITING_DATE_UTC             : 2015-05-22 19:40:51
    _STATISTICS_TAGS                         : BPS DURATION NUMBER_OF_FRAMES NUMBER_OF_BYTES

    Video
    ID                                       : 1
    Format                                   : AVC
    Format/Info                              : Advanced Video Codec
    Format profile                           : High@L4.1
    Format settings, CABAC                   : Yes
    Format settings, ReFrames                : 5 frames
    Codec ID                                 : V_MPEG4/ISO/AVC
    Duration                                 : 43mn 26s
    Bit rate                                 : 2 378 Kbps
    Width                                    : 1 280 pixels
    Height                                   : 720 pixels
    Display aspect ratio                     : 16:9
    Frame rate                               : 23.976 fps
    Color space                              : YUV
    Chroma subsampling                       : 4:2:0
    Bit depth                                : 8 bits
    Scan type                                : Progressive
    Bits/(Pixel*Frame)                       : 0.108
    Stream size                              : 737 MiB (74%)
    Writing library                          : x264 core 146 r2538 121396c
    Encoding settings                        : cabac=1 / ref=5 / deblock=1:0:0 / analyse=0x3:0x113 / me=umh / subme=8 / psy=1 / psy_rd=1.00:0.00 / mixed_ref=1 / me_range=16 / chroma_me=1 / trellis=1 / 8x8dct=1 / cqm=0 / deadzone=21,11 / fast_pskip=1 / chroma_qp_offset=-2 / threads=12 / lookahead_threads=2 / sliced_threads=0 / nr=0 / decimate=1 / interlaced=0 / bluray_compat=0 / constrained_intra=0 / bframes=3 / b_pyramid=2 / b_adapt=2 / b_bias=0 / direct=3 / weightb=1 / open_gop=0 / weightp=2 / keyint=250 / keyint_min=23 / scenecut=40 / intra_refresh=0 / rc_lookahead=50 / rc=crf / mbtree=1 / crf=18.0 / qcomp=0.60 / qpmin=0 / qpmax=69 / qpstep=4 / ip_ratio=1.40 / aq=1:1.00
    Default                                  : No
    Forced                                   : No
    Matrix coefficients                      : BT.709-5, BT.1361, IEC 61966-2-4 709, SMPTE RP177

    Audio #1
    ID                                       : 2
    Format                                   : AC-3
    Format/Info                              : Audio Coding 3
    Mode extension                           : CM (complete main)
    Codec ID                                 : A_AC3
    Duration                                 : 43mn 26s
    Bit rate mode                            : Constant
    Bit rate                                 : 384 Kbps
    Channel(s)                               : 6 channels
    Channel positions                        : Front: L C R, Side: L R, LFE
    Sampling rate                            : 48.0 KHz
    Bit depth                                : 16 bits
    Compression mode                         : Lossy
    Stream size                              : 119 MiB (12%)
    Language                                 : Russian
    Default                                  : Yes
    Forced                                   : No

    Audio #2
    ID                                       : 3
    Format                                   : AC-3
    Format/Info                              : Audio Coding 3
    Mode extension                           : CM (complete main)
    Codec ID                                 : A_AC3
    Duration                                 : 43mn 26s
    Bit rate mode                            : Constant
    Bit rate                                 : 384 Kbps
    Channel(s)                               : 6 channels
    Channel positions                        : Front: L C R, Side: L R, LFE
    Sampling rate                            : 48.0 KHz
    Bit depth                                : 16 bits
    Compression mode                         : Lossy
    Stream size                              : 119 MiB (12%)
    Language                                 : English
    Default                                  : No
    Forced                                   : No




    Скриншоты:
    скриншот   скриншот   скриншот   скриншот   скриншот  
    скриншот  

    Раздача ведётся путём добавления новых серий. Добавлена 6 серия (28.06.2015).Просьба перекачать торрент файл.

    pb.wtf



  • Скачать Между через торрент http://pic1.kartinco.top/images/10/q3qs1.jpg Скачать фильм Между через торрент бесплантно в хорошем качестве Описание: Небольшой городок с живописным названием Красивое озеро сталкивается с ужасающей эпидемией. За 10 дней неведомая чума уничтожает ... 9.8 10 5
    Info! Золотая раздача, скачанное не засчитывается.
    Торрент: Зарегистрирован [2015-06-28 03:43] · скачан: 34 раз
    Статус: √ проверено
    Размер: 6.18 GB
    Как cкачать? Как скачать Между через торрент | qTorrent

    % Раздел Тема Автор DL S | L
    Зарубежные сериалы [ 3.81 GB ] Между / Between / Сезон: 1 / Серии 1-6 из 6 [2015 HDTVRip MVO] [BaibaKo] GEKADOL Скачать
    1 | 0


    Последний раз редактировалось: GEKADOL (2015-06-28 03:43), всего редактировалось 7 раз(а)

    28-11-2019 20:33  

    Отключить всю рекламу на сайте

    23-05-2015 08:39 Между Скачать торрент  

    как сериал?pb.wtf



    23-05-2015 09:27 Между Скачать торрент  

    shurgan1980 писал(а):

    как сериал?

    Посмотрел интересно пока))pb.wtf



    13-06-2015 08:35 Между Скачать торрент  

    Народ, с инопланетянами сериал не связан? Скажите кто смотрел, под спойлером или в лс.pb.wtf



    14-06-2015 01:51 Между Скачать торрент  

    oldGAMERu писал(а):

    Народ, с инопланетянами сериал не связан? Скажите кто смотрел, под спойлером или в лс.

    Нет не связан)pb.wtf



      Дорогой пользователь! Огромная просьба, поблагодарите релизера, оцените раздачу и оставьте свои комментарий, если Вы скачали Между через торрент бесплатно! Внесите свою лепту в развитие PiratBit!
      Комментировать посты могут только пользователи прошедшие не сложную регистрацию
      Показать сообщения:    

      Между через торрент
      Скачать бесплатно Между
      Между скачать торрент
      Между смотреть онлайн
      Cкачать фильм Между бесплатно
      Между скачать торрент в хорошем качестве
      Между смотреть онлайн бесплатно в хорошем качестве


      Вы не можете начинать темы
      Вы не можете отвечать на сообщения
      Вы не можете редактировать свои сообщения
      Вы не можете удалять свои сообщения
      Вы не можете голосовать в опросах
      Вы не можете прикреплять файлы к сообщениям
      Вы можете скачивать файлы