Ссылка на приватное зеркало нашего сайта всего за 1$. Внимание количество ограничено!!!

2 сезон

iTunes

1 сезон

1

2 сезон

2 сезон

iTunes

1 сезон

RePack

30

Ultimate

ВАЖНО

ИГРА 18+

pack

RePack

MK11
pack

Забери бонус

RePack

jed

!!Акция!!

Alien_Rage

RePack

fifa19

RePack

Assassins Creed: Odyssey

RePack

NEED FOR SPEED™ PAYBACK

4 сезон

9 сезон

Бесстыжие 9 сезон

Все сериалы

все сериалы на PB.wtf

RePack

FAR CRY 5
  

Кат Бэнк / Cut Bank (Мэтт Шекман ) [2014, триллер, BDRip 720p, DVO] (ColdFilm) pb.wtf

Кат Бэнк через торрент pb.wtf

Размер: 4.22 GB | Добавлен: 5 лет 6 мес. назад | Торрент скачан:51 раз
Скачать  

23-05-2015 06:13 Кат Бэнк Скачать торрент  


Кат Бэнк / Cut Bank
«Good Folks. Bad Deeds»

ИНФОРМАЦИЯ:
Год выпуска:2014
Страна: США
Жанр: триллер
Продолжительность: 01:33:08
Перевод: Любительский (двухголосый)(ColdFilm)
Субтитры: Finnish, шведские,
Режиссер: Мэтт Шекман

В Ролях:


Лиам Хемсворт (Dwayne McLaren), Тереза Палмер (Cassandra), Билли Боб Торнтон (Big Stan), Брюс Дерн (Georgie Wits), Джон Малкович (Sheriff Vogel), Оливер Платт (Joe Barrett), Тай Олссон (Harvey), Майкл Стулбарг (Derby Milton), Соня Саломяа (Gretchen), Пейтон Кеннеди (Rosie), Кристиан Дистефано (Wyatt), Кинг Лау (Nurse)

Описание:
Дуэйн МакЛарен живет в городе Кат Бэнк, штат Монтана, работает в автомастерской, но в школе был звездой футбола. Поскольку городок буквально застрял во времени, Дуэйну очень хочется вырваться из него. Он предпринимает все возможное, чтобы покинуть Кат Бэнк, тем самым запуская череду событий, которые изменят не только его жизнь, но и сам город.

  • Мировая премьера:16 июня 2014

    ТЕХ.ДАННЫЕ:
    Качество: BDRip 720p
    Формат: MKV
    Видео кодек: AVC
    Аудио кодек: AC3, DTS
    Видео: AVC, 1280x534 (2.40:1), 4777 kbps, 23,976 fps, 0,291 bpp
    Аудио №1: AC3 / 2.0 / 48 kHz / 192 kbps / 16 bit
    Аудио №2: французский / DTS / 5.1 / 48 kHz / 1510 kbps / 24 bit
    Навигация по главам: есть



    Код:

    Общее
    Уникальный идентификатор                 : 225145561004567051860982395849669345111 (0xA9617530F808D5B99B382D17252BFF57)
    Полное имя                               : D:\Торенты\Cut.Bank.2014.L2.BDRip.720p.mkv
    Формат                                   : Matroska
    Версия формата                           : Version 2
    Размер файла                             : 4,22 Гбайт
    Продолжительность                        : 1 ч. 33 м.
    Общий поток                              : 6494 Кбит/сек
    Дата кодирования                         : UTC 2015-05-22 16:07:15
    Программа кодирования                    : mkvmerge v7.8.0 ('River Man') 64bit built on Mar 27 2015 16:31:37
    Библиотека кодирования                   : libebml v1.3.1 + libmatroska v1.4.2

    Видео
    Идентификатор                            : 1
    Формат                                   : AVC
    Формат/Информация                        : Advanced Video Codec
    Профиль формата                          : High@L4.1
    Параметр CABAC формата                   : Да
    Параметр ReFrames формата                : 4 кадра
    Идентификатор кодека                     : V_MPEG4/ISO/AVC
    Продолжительность                        : 1 ч. 33 м.
    Битрейт                                  : 4777 Кбит/сек
    Ширина                                   : 1280 пикселей
    Высота                                   : 534 пикселя
    Соотношение сторон                       : 2,40:1
    Режим частоты кадров                     : Постоянный
    Частота кадров                           : 23,976 кадра/сек
    Цветовое пространство                    : YUV
    Субдискретизация насыщенности            : 4:2:0
    Битовая глубина                          : 8 бит
    Тип развёртки                            : Прогрессивная
    Бит/(Пиксели*Кадры)                      : 0.291
    Размер потока                            : 3,03 Гбайт (72%)
    Библиотека кодирования                   : x264 core 146 r2538 121396c
    Настройки программы                      : cabac=1 / ref=4 / deblock=1:0:0 / analyse=0x3:0x3 / me=dia / subme=1 / psy=1 / psy_rd=1.00:0.00 / mixed_ref=0 / me_range=16 / chroma_me=1 / trellis=0 / 8x8dct=1 / cqm=0 / deadzone=21,11 / fast_pskip=1 / chroma_qp_offset=-2 / threads=18 / lookahead_threads=3 / sliced_threads=0 / nr=0 / decimate=1 / interlaced=0 / bluray_compat=0 / constrained_intra=0 / bframes=1 / b_pyramid=0 / b_adapt=1 / b_bias=0 / direct=1 / weightb=1 / open_gop=0 / weightp=1 / keyint=240 / keyint_min=23 / scenecut=40 / intra_refresh=0 / rc_lookahead=0 / rc=2pass / mbtree=0 / bitrate=4777 / ratetol=1.0 / qcomp=0.60 / qpmin=0 / qpmax=69 / qpstep=4 / cplxblur=20.0 / qblur=0.5 / vbv_maxrate=20000 / vbv_bufsize=20000 / nal_hrd=none / filler=0 / ip_ratio=1.40 / pb_ratio=1.30 / aq=2:1.00
    Default                                  : Да
    Forced                                   : Нет

    Аудио #1
    Идентификатор                            : 2
    Формат                                   : AC-3
    Формат/Информация                        : Audio Coding 3
    Расширение режима                        : CM (complete main)
    Параметр Endianness формата              : Big
    Идентификатор кодека                     : A_AC3
    Продолжительность                        : 1 ч. 33 м.
    Вид битрейта                             : Постоянный
    Битрейт                                  : 192 Кбит/сек
    Каналы                                   : 2 канала
    Расположение каналов                     : Front: L R
    Частота                                  : 48,0 КГц
    Битовая глубина                          : 16 бит
    Метод сжатия                             : С потерями
    Размер потока                            : 128 Мбайт (3%)
    Default                                  : Да
    Forced                                   : Нет

    Аудио #2
    Идентификатор                            : 3
    Формат                                   : DTS
    Формат/Информация                        : Digital Theater Systems
    Режим                                    : 16
    Параметр Endianness формата              : Big
    Идентификатор кодека                     : A_DTS
    Продолжительность                        : 1 ч. 33 м.
    Вид битрейта                             : Постоянный
    Битрейт                                  : 1509 Кбит/сек
    Каналы                                   : 6 каналов
    Расположение каналов                     : Front: L C R, Side: L R, LFE
    Частота                                  : 48,0 КГц
    Битовая глубина                          : 24 бит
    Метод сжатия                             : С потерями
    Размер потока                            : 1005 Мбайт (23%)
    Язык                                     : French
    Default                                  : Нет
    Forced                                   : Нет

    Текст #1
    Идентификатор                            : 4
    Формат                                   : PGS
    Режим смешивания                         : zlib
    Идентификатор кодека                     : S_HDMV/PGS
    Идентификатор кодека/Информация          : The same subtitle format used on BDs/HD-DVDs
    Язык                                     : Finnish
    Default                                  : Нет
    Forced                                   : Нет

    Текст #2
    Идентификатор                            : 5
    Формат                                   : PGS
    Режим смешивания                         : zlib
    Идентификатор кодека                     : S_HDMV/PGS
    Идентификатор кодека/Информация          : The same subtitle format used on BDs/HD-DVDs
    Язык                                     : Swedish
    Default                                  : Нет
    Forced                                   : Нет

    Меню
    00:00:00.000                             : en:
    00:04:53.835                             : en:
    00:10:38.679                             : en:
    00:17:14.950                             : en:
    00:26:14.322                             : en:
    00:33:50.987                             : en:
    00:40:53.367                             : en:
    00:46:32.122                             : en:
    00:52:17.425                             : en:
    00:58:42.310                             : en:
    01:04:48.718                             : en:
    01:11:22.403                             : en:
    01:16:18.573                             : en:
    01:21:02.983                             : en:
    01:24:35.862                             : en:
    01:28:14.539                             : en:

    Скриншоты:


    © Оформление by Ворон
    pb.wtf



  • Скачать Кат Бэнк через торрент http://pic.kartinco.top/images/6/ordi9.jpg Скачать фильм Кат Бэнк через торрент бесплантно в хорошем качестве Описание: Дуэйн МакЛарен живет в городе Кат Бэнк, штат Монтана, работает в автомастерской, но в школе был звездой футбола. Поскольку ... 10 10 4
    Торрент: Зарегистрирован [2015-05-23 06:13] · скачан: 51 раз
    Статус: T временная
    Размер: 4.22 GB
    Как cкачать? Как скачать Кат Бэнк через торрент | qTorrent

    % Раздел Тема Автор DL S | L
    T Фильмы 2014 (Звук TS, Cam, VO, DVO) [ 1.37 GB ] Кат Бэнк / Cut Bank [2014 HDRip DVO] Ворон Скачать
    1 | 0
    T Фильмы 2014 (Звук TS, Cam, VO, DVO) [ 743 MB ] Кат Бэнк / Cut Bank [2014 WEB-DLRip Любительский ] ninla Скачать
    1 | 0
    Фильмы без перевода [ 2.14 GB ] Кат Бэнк / Cut Bank [2014 WEB-DL 720p Субтитры Серёжк@ Скачать
    1 | 0

    28-11-2019 20:33  

    Отключить всю рекламу на сайте

      Дорогой пользователь! Огромная просьба, поблагодарите релизера, оцените раздачу и оставьте свои комментарий, если Вы скачали Кат Бэнк через торрент бесплатно! Внесите свою лепту в развитие PiratBit!
      Комментировать посты могут только пользователи прошедшие не сложную регистрацию
      Показать сообщения:    

      Кат Бэнк через торрент
      Скачать бесплатно Кат Бэнк
      Кат Бэнк скачать торрент
      Кат Бэнк смотреть онлайн
      Cкачать фильм Кат Бэнк бесплатно
      Кат Бэнк скачать торрент в хорошем качестве
      Кат Бэнк смотреть онлайн бесплатно в хорошем качестве


      Вы не можете начинать темы
      Вы не можете отвечать на сообщения
      Вы не можете редактировать свои сообщения
      Вы не можете удалять свои сообщения
      Вы не можете голосовать в опросах
      Вы не можете прикреплять файлы к сообщениям
      Вы можете скачивать файлы