Ссылка на приватное зеркало нашего сайта всего за 1$. Внимание количество ограничено!!!

2 сезон

iTunes

1 сезон

1

2 сезон

2 сезон

iTunes

1 сезон

RePack

30

Ultimate

ВАЖНО

ИГРА 18+

pack

RePack

MK11
pack

Забери бонус

RePack

jed

!!Акция!!

Alien_Rage

RePack

fifa19

RePack

Assassins Creed: Odyssey

RePack

NEED FOR SPEED™ PAYBACK

4 сезон

9 сезон

Бесстыжие 9 сезон

Все сериалы

все сериалы на PB.wtf

RePack

FAR CRY 5
  

Призраки Энфилда (мини-сериал) / The Enfield Haunting / Сезон: 1 / Серии 1-3 из 3 (Кристоффер Нюхольм / Kristoffer Nyholm) [2015, Великобритания, детектив, HDTVRip] MVO [Viruse Project] pb.wtf

Призраки Энфилда через торрент pb.wtf

Размер: 1.69 GB | Добавлен: 5 лет 6 мес. назад | Торрент скачан:77 раз
Скачать  

23-05-2015 09:07 Призраки Энфилда Скачать торрент  

Призраки Энфилда / The Enfield Haunting


  • Год выпуска: 2015
  • Страна: Великобритания
  • Жанр: детектив
  • Продолжительность: 00:46:55 (Серия)
  • Перевод: Профессиональный многоголосый закадровый) [Viruse Project]

  • Режиссер: Кристоффер Нюхольм / Kristoffer Nyholm
  • В ролях:

    Элинор Вортингтон-Кокс (Janet Hodgson), Тимоти Сполл (Maurice Grosse), Ферн Дикон (Margaret Hodgson), Джульет Стивенсон (Betty Grosse), Рози Кавальеро (Peggy Hodgson), Мэттью Макфэдиен (Guy Playfair), Эллиот Керли (Billy Hodgson), Струан Роджер (Joe Watson), Чарльз Фернесс (Simon), Шон Френсис (Ray), Джои Прайс (Johnny Hodgson), Аманда Лоуренс (Lindy Craine)

  • Описание:
    Засушливый август 1977 года, Энфилд, район на севере Лондона. В одном из обычных домов, где живет обычная семья со своими обычными проблемами, начинают происходить странные события: раздаются громкие стуки и грохот, предметы перемещаются сами по себе. Очень быстро становится понятно, что под угрозой жизнь и здоровье 11-летней девочки, живущей в доме. Для расследования инцидента Общество психических исследователей присылает специалиста, чья дочь трагически погибла ровно год назад...
  • Рейтинг:



  • Качество: HDTVRip
  • Формат: :AVI
  • Видео кодек: XviD
  • Аудио кодек: MP3
  • Видео: 720x400 (16:9), 1530 kbps, 25 fps, 0,213 bpp
  • Аудио: 2.0 / 48 kHz / 192 kbps
  • Релиз от: GEKADOL

    Код:

    General
    Complete name                            : F:\The.Enfield.Haunting.S01.ViruseProject\The.Enfield.Haunting.S01E03.ViruseProject.avi
    Format                                   : AVI
    Format/Info                              : Audio Video Interleave
    File size                                : 581 MiB
    Duration                                 : 46mn 55s
    Overall bit rate                         : 1 732 Kbps
    Writing application                      : VirtualDubMod 1.5.10.2 (build 2540/release)
    Writing library                          : VirtualDubMod build 2540/release

    Video
    ID                                       : 0
    Format                                   : MPEG-4 Visual
    Format profile                           : Advanced Simple@L5
    Format settings, BVOP                    : 2
    Format settings, QPel                    : No
    Format settings, GMC                     : No warppoints
    Format settings, Matrix                  : Default (H.263)
    Muxing mode                              : Packed bitstream
    Codec ID                                 : XVID
    Codec ID/Hint                            : XviD
    Duration                                 : 46mn 55s
    Bit rate                                 : 1 531 Kbps
    Width                                    : 720 pixels
    Height                                   : 400 pixels
    Display aspect ratio                     : 16:9
    Frame rate                               : 25.000 fps
    Color space                              : YUV
    Chroma subsampling                       : 4:2:0
    Bit depth                                : 8 bits
    Scan type                                : Progressive
    Compression mode                         : Lossy
    Bits/(Pixel*Frame)                       : 0.213
    Stream size                              : 514 MiB (88%)
    Writing library                          : XviD 73

    Audio
    ID                                       : 1
    Format                                   : MPEG Audio
    Format version                           : Version 1
    Format profile                           : Layer 3
    Mode                                     : Joint stereo
    Mode extension                           : MS Stereo
    Codec ID                                 : 55
    Codec ID/Hint                            : MP3
    Duration                                 : 46mn 55s
    Bit rate mode                            : Constant
    Bit rate                                 : 192 Kbps
    Channel(s)                               : 2 channels
    Sampling rate                            : 48.0 KHz
    Compression mode                         : Lossy
    Stream size                              : 64.4 MiB (11%)
    Alignment                                : Aligned on interleaves
    Interleave, duration                     : 40 ms (1.00 video frame)
    Interleave, preload duration             : 504 ms




    Скриншоты:



    pb.wtf



  • Скачать Призраки Энфилда через торрент http://i6.imageban.ru/out/2015/05/23/3961f6ba4ecdc43ffebeefa32f919dd4.jpg Скачать фильм Призраки Энфилда через торрент бесплантно в хорошем качестве Описание: Засушливый август 1977 года, Энфилд, район на севере Лондона. В одном из обычных домов, где живет обычная семья со своими ... 1 10 1
    Торрент: Зарегистрирован [2015-05-23 09:07] · скачан: 77 раз
    Статус: √ проверено
    Размер: 1.69 GB
    Как cкачать? Как скачать Призраки Энфилда через торрент | qTorrent

    % Раздел Тема Автор DL S | L
    Зарубежные сериалы [ 3.09 GB ] Призраки Энфилда / The Enfield Haunting / Сезон: 1 / Серии 1-3 из 3 [2015 HDTVRip 720р] MVO [Viruse Project] GEKADOL Скачать
    1 | 0

    28-11-2019 20:33  

    Отключить всю рекламу на сайте

      Дорогой пользователь! Огромная просьба, поблагодарите релизера, оцените раздачу и оставьте свои комментарий, если Вы скачали Призраки Энфилда через торрент бесплатно! Внесите свою лепту в развитие PiratBit!
      Комментировать посты могут только пользователи прошедшие не сложную регистрацию
      Показать сообщения:    

      Призраки Энфилда через торрент
      Скачать бесплатно Призраки Энфилда
      Призраки Энфилда скачать торрент
      Призраки Энфилда смотреть онлайн
      Cкачать фильм Призраки Энфилда бесплатно
      Призраки Энфилда скачать торрент в хорошем качестве
      Призраки Энфилда смотреть онлайн бесплатно в хорошем качестве


      Вы не можете начинать темы
      Вы не можете отвечать на сообщения
      Вы не можете редактировать свои сообщения
      Вы не можете удалять свои сообщения
      Вы не можете голосовать в опросах
      Вы не можете прикреплять файлы к сообщениям
      Вы можете скачивать файлы